  0
SECTION
  2
HEADER
  9
$ACADVER
  1
AC1009
  9
$DWGCODEPAGE
  3
ansi_932
  9
$INSBASE
 10
0.0
 20
0.0
 30
0.0
  9
$EXTMIN
 10
0.0
 20
0.0
 30
0.0
  9
$EXTMAX
 10
1188.0
 20
840.0
 30
0.0
  9
$LIMMIN
 10
0.0
 20
0.0
  9
$LIMMAX
 10
420.0
 20
297.0
  9
$ORTHOMODE
 70
     0
  9
$REGENMODE
 70
     1
  9
$FILLMODE
 70
     1
  9
$QTEXTMODE
 70
     0
  9
$MIRRTEXT
 70
     0
  9
$DRAGMODE
 70
     2
  9
$LTSCALE
 40
0.8
  9
$OSMODE
 70
  2303
  9
$ATTMODE
 70
     1
  9
$TEXTSIZE
 40
7.0
  9
$TRACEWID
 40
1.0
  9
$TEXTSTYLE
  7
TEXT_T1
  9
$CLAYER
  8
0
  9
$CELTYPE
  6
BYLAYER
  9
$CECOLOR
 62
   256
  9
$DIMSCALE
 40
2.0
  9
$DIMASZ
 40
2.0
  9
$DIMEXO
 40
0.0
  9
$DIMDLI
 40
10.0
  9
$DIMRND
 40
0.0
  9
$DIMDLE
 40
0.0
  9
$DIMEXE
 40
0.0
  9
$DIMTP
 40
0.0
  9
$DIMTM
 40
0.0
  9
$DIMTXT
 40
3.5
  9
$DIMCEN
 40
0.0
  9
$DIMTSZ
 40
0.0
  9
$DIMTOL
 70
     0
  9
$DIMLIM
 70
     0
  9
$DIMTIH
 70
     0
  9
$DIMTOH
 70
     0
  9
$DIMSE1
 70
     0
  9
$DIMSE2
 70
     0
  9
$DIMTAD
 70
     1
  9
$DIMZIN
 70
     8
  9
$DIMBLK
  1
SMALL
  9
$DIMASO
 70
     1
  9
$DIMSHO
 70
     1
  9
$DIMPOST
  1

  9
$DIMAPOST
  1

  9
$DIMALT
 70
     0
  9
$DIMALTD
 70
     6
  9
$DIMALTF
 40
25.4
  9
$DIMLFAC
 40
1.0
  9
$DIMTOFL
 70
     1
  9
$DIMTVP
 40
0.0
  9
$DIMTIX
 70
     1
  9
$DIMSOXD
 70
     0
  9
$DIMSAH
 70
     0
  9
$DIMBLK1
  1

  9
$DIMBLK2
  1

  9
$DIMSTYLE
  2
SGDIM
  9
$DIMCLRD
 70
   256
  9
$DIMCLRE
 70
   256
  9
$DIMCLRT
 70
   256
  9
$DIMTFAC
 40
1.0
  9
$DIMGAP
 40
1.0
  9
$LUNITS
 70
     2
  9
$LUPREC
 70
     4
  9
$SKETCHINC
 40
1.0
  9
$FILLETRAD
 40
10.0
  9
$AUNITS
 70
     0
  9
$AUPREC
 70
     0
  9
$MENU
  1
.
  9
$ELEVATION
 40
0.0
  9
$PELEVATION
 40
0.0
  9
$THICKNESS
 40
0.0
  9
$LIMCHECK
 70
     0
  9
$CHAMFERA
 40
0.0
  9
$CHAMFERB
 40
0.0
  9
$SKPOLY
 70
     0
  9
$TDCREATE
 40
2458989.687820278
  9
$TDUPDATE
 40
2459972.94784316
  9
$TDINDWG
 40
0.1707561227
  9
$TDUSRTIMER
 40
0.1707561227
  9
$USRTIMER
 70
     1
  9
$ANGBASE
 50
0.0
  9
$ANGDIR
 70
     0
  9
$PDMODE
 70
     0
  9
$PDSIZE
 40
0.0
  9
$PLINEWID
 40
0.0
  9
$COORDS
 70
     0
  9
$SPLFRAME
 70
     0
  9
$SPLINETYPE
 70
     6
  9
$SPLINESEGS
 70
     8
  9
$ATTDIA
 70
     1
  9
$ATTREQ
 70
     1
  9
$HANDLING
 70
     1
  9
$HANDSEED
  5
2E51
  9
$SURFTAB1
 70
     6
  9
$SURFTAB2
 70
     6
  9
$SURFTYPE
 70
     6
  9
$SURFU
 70
     6
  9
$SURFV
 70
     6
  9
$UCSNAME
  2

  9
$UCSORG
 10
0.0
 20
0.0
 30
0.0
  9
$UCSXDIR
 10
1.0
 20
0.0
 30
0.0
  9
$UCSYDIR
 10
0.0
 20
1.0
 30
0.0
  9
$PUCSNAME
  2

  9
$PUCSORG
 10
0.0
 20
0.0
 30
0.0
  9
$PUCSXDIR
 10
1.0
 20
0.0
 30
0.0
  9
$PUCSYDIR
 10
0.0
 20
1.0
 30
0.0
  9
$USERI1
 70
     2
  9
$USERI2
 70
     1
  9
$USERI3
 70
    -1
  9
$USERI4
 70
     0
  9
$USERI5
 70
     0
  9
$USERR1
 40
2.0
  9
$USERR2
 40
0.0
  9
$USERR3
 40
0.0
  9
$USERR4
 40
0.0
  9
$USERR5
 40
0.0
  9
$WORLDVIEW
 70
     1
  9
$SHADEDGE
 70
     3
  9
$SHADEDIF
 70
    70
  9
$TILEMODE
 70
     1
  9
$MAXACTVP
 70
    64
  9
$PLIMCHECK
 70
     0
  9
$PEXTMIN
 10
1.000000E+20
 20
1.000000E+20
 30
1.000000E+20
  9
$PEXTMAX
 10
-1.000000E+20
 20
-1.000000E+20
 30
-1.000000E+20
  9
$PLIMMIN
 10
0.0
 20
0.0
  9
$PLIMMAX
 10
420.0
 20
297.0
  9
$UNITMODE
 70
     0
  9
$VISRETAIN
 70
     1
  9
$PLINEGEN
 70
     0
  9
$PSLTSCALE
 70
     1
  0
ENDSEC
  0
SECTION
  2
TABLES
  0
TABLE
  2
VPORT
 70
     1
  0
VPORT
  2
*ACTIVE
 70
     0
 10
0.0
 20
0.0
 11
1.0
 21
1.0
 12
594.0
 22
420.0
 13
0.0
 23
0.0
 14
10.0
 24
10.0
 15
10.0
 25
10.0
 16
0.0
 26
0.0
 36
1.0
 17
0.0
 27
0.0
 37
0.0
 40
856.8
 41
1.82177
 42
50.0
 43
0.0
 44
0.0
 50
0.0
 51
0.0
 71
     0
 72
   100
 73
     1
 74
     3
 75
     0
 76
     0
 77
     0
 78
     0
  0
ENDTAB
  0
TABLE
  2
LTYPE
 70
     4
  0
LTYPE
  2
CONTINUOUS
 70
     0
  3
_______________________
 72
    65
 73
     2
 40
9999.0
 49
9999.0
 49
0.0
  0
LTYPE
  2
CENTER
 70
     0
  3
Center ____ _ ____ _ ____ _ ____ _ ____ _ ____
 72
    65
 73
     4
 40
50.8
 49
31.75
 49
-6.35
 49
6.35
 49
-6.35
  0
LTYPE
  2
HIDDEN
 70
     0
  3
Hidden __ __ __ __ __ __ __ __ __ __ __ __ __ _
 72
    65
 73
     2
 40
9.525
 49
6.35
 49
-3.175
  0
LTYPE
  2
CENTER2
 70
     0
  3
__ . __ . __ . __ . __ . __
 72
    65
 73
     4
 40
9.0
 49
6.0
 49
-0.75
 49
1.5
 49
-0.75
  0
ENDTAB
  0
TABLE
  2
LAYER
 70
     2
  0
LAYER
  2
0
 70
     0
 62
     7
  6
CONTINUOUS
  0
LAYER
  2
DEFPOINTS
 70
     0
 62
     7
  6
CONTINUOUS
  0
ENDTAB
  0
TABLE
  2
STYLE
 70
     4
  0
STYLE
  2
STANDARD
 70
     0
 40
0.0
 41
1.0
 50
0.0
 71
     0
 42
2.5
  3
simplex.shx
  4
bigfont.shx
  0
STYLE
  2
TEXT_S
 70
     0
 40
0.0
 41
0.8
 50
0.0
 71
     0
 42
2.5
  3
simplex.shx
  4
bigfont.shx
  0
STYLE
  2
TEXT_T1
 70
     0
 40
7.0
 41
0.8
 50
0.0
 71
     0
 42
7.0
  3
simplex.shx
  4
bigfont.shx
  0
STYLE
  2
TEXT_T1B
 70
     4
 40
7.0
 41
0.8
 50
0.0
 71
     0
 42
7.0
  3
simplex.shx
  4
bigfont.shx
  0
ENDTAB
  0
TABLE
  2
VIEW
 70
     0
  0
ENDTAB
  0
TABLE
  2
UCS
 70
     1
  0
UCS
  2
AAA0109
 70
     0
 10
0.0
 20
0.0
 30
0.0
 11
1.0
 21
0.0
 31
0.0
 12
0.0
 22
1.0
 32
0.0
  0
ENDTAB
  0
TABLE
  2
APPID
 70
    27
  0
APPID
  2
ACAD
 70
     0
  0
APPID
  2
ACAD_NAV_VCDISPLAY
 70
     0
  0
APPID
  2
FRAME_OUTSIGN
 70
     0
  0
APPID
  2
FRAME_DESIGNSHEET
 70
     0
  0
APPID
  2
PAPER
 70
     0
  0
APPID
  2
FRAME_TEXT
 70
     0
  0
APPID
  2
MCAD_NO_VIS
 70
     0
  0
APPID
  2
ACAD_TEMP_GRAPHIC
 70
     0
  0
APPID
  2
ACATTRIBSERVICES
 70
     0
  0
APPID
  2
PE_URL
 70
     0
  0
APPID
  2
GENIUS_GENDIM_13
 70
     0
  0
APPID
  2
GENIUS_GENDTOL_13
 70
     0
  0
APPID
  2
GENIUS_GE3DTOL_13
 70
     0
  0
APPID
  2
AD_DRAW
 70
     0
  0
APPID
  2
ASURF_PCURVE_APPNAME
 70
     0
  0
APPID
  2
AMG_3D2D_5_0
 70
     0
  0
APPID
  2
DESIGNERASSEMBLIES
 70
     0
  0
APPID
  2
ACADM_DIM_EDIT
 70
     0
  0
APPID
  2
GENIUS_GENODEF_13
 70
     0
  0
APPID
  2
GENIUS_GENOBJ-N-FIL_13
 70
     0
  0
APPID
  2
ACAD_DSTYLE_DIMINSPECT
 70
     0
  0
APPID
  2
GRADIENTCOLOR1ACI
 70
     0
  0
APPID
  2
GRADIENTCOLOR2ACI
 70
     0
  0
APPID
  2
ACAD_EXEMPT_FROM_CAD_STAND
 70
     0
  0
APPID
  2
ACAD_MLEADERVER
 70
     0
  0
APPID
  2
ACADANNOTATIVE
 70
     0
  0
APPID
  2
PLOTTRANSPARENCY
 70
     0
  0
ENDTAB
  0
TABLE
  2
DIMSTYLE
 70
     2
  0
DIMSTYLE
  2
ISO-25
 70
     0
  3

  4

  5

  6

  7

 40
1.0
 41
2.5
 42
0.625
 43
3.75
 44
1.25
 45
0.0
 46
0.0
 47
0.0
 48
0.0
140
2.5
141
2.5
142
0.0
143
0.03937
144
1.0
145
0.0
146
1.0
147
0.625
 71
     0
 72
     0
 73
     0
 74
     0
 75
     0
 76
     0
 77
     1
 78
     8
170
     0
171
     3
172
     1
173
     0
174
     0
175
     0
176
     0
177
     0
178
     0
  0
DIMSTYLE
  2
SGDIM
 70
     0
  3

  4

  5
SMALL
  6

  7

 40
2.0
 41
2.0
 42
0.0
 43
10.0
 44
0.0
 45
0.0
 46
0.0
 47
0.0
 48
0.0
140
3.5
141
0.0
142
0.0
143
25.4
144
1.0
145
0.0
146
1.0
147
1.0
 71
     0
 72
     0
 73
     0
 74
     0
 75
     0
 76
     0
 77
     1
 78
     8
170
     0
171
     6
172
     1
173
     0
174
     1
175
     0
176
     1
177
     1
178
     2
  0
ENDTAB
  0
ENDSEC
  0
SECTION
  2
BLOCKS
  0
BLOCK
  8
0
  2
$MODEL_SPACE
 70
     0
 10
0.0
 20
0.0
 30
0.0
  3
$MODEL_SPACE
  1

  0
ENDBLK
  5
21
  8
0
  0
BLOCK
 67
     1
  8
0
  2
$PAPER_SPACE
 70
     0
 10
0.0
 20
0.0
 30
0.0
  3
$PAPER_SPACE
  1

  0
ENDBLK
  5
1D
 67
     1
  8
0
  0
BLOCK
  8
0
  2
_SMALL
 70
     0
 10
0.0
 20
0.0
 30
0.0
  3
_SMALL
  1

  0
CIRCLE
  5
AA
  8
0
  6
BYBLOCK
 62
     0
 10
0.0
 20
0.0
 30
0.0
 40
0.25
  0
ENDBLK
  5
A9
  8
0
  0
BLOCK
  8
0
  2
*D1
 70
     1
 10
0.0
 20
0.0
 30
0.0
  3
*D1
  1

  0
LINE
  5
1995
  8
0
  6
CONTINUOUS
 10
1020.0
 20
414.999451
 30
0.0
 11
1039.998535
 21
414.999451
 31
0.0
  0
LINE
  5
1996
  8
0
  6
CONTINUOUS
 10
1020.0
 20
429.999451
 30
0.0
 11
1039.998535
 21
429.999451
 31
0.0
  0
LINE
  5
1997
  8
0
  6
CONTINUOUS
 10
1039.998535
 20
414.999451
 30
0.0
 11
1039.998535
 21
429.999451
 31
0.0
  0
INSERT
  5
1998
  8
0
  2
_SMALL
 10
1039.998535
 20
414.999451
 30
0.0
 41
4.0
 42
4.0
 43
4.0
 50
270.0
  0
INSERT
  5
1999
  8
0
  2
_SMALL
 10
1039.998535
 20
429.999451
 30
0.0
 41
4.0
 42
4.0
 43
4.0
 50
90.0
  0
TEXT
  5
199A
  8
0
  6
CONTINUOUS
 10
1037.998535
 20
418.499451
 30
0.0
 40
7.0
  1
15
 50
90.0
 41
0.8
  7
TEXT_S
  0
POINT
  5
199B
  8
DEFPOINTS
 62
     0
 10
1020.0
 20
414.999451
 30
0.0
  0
POINT
  5
199C
  8
DEFPOINTS
 62
     0
 10
1020.0
 20
429.999451
 30
0.0
  0
POINT
  5
199D
  8
DEFPOINTS
 62
     0
 10
1039.998535
 20
429.999451
 30
0.0
  0
ENDBLK
  5
90C
  8
0
  0
BLOCK
  8
0
  2
*D2
 70
     1
 10
0.0
 20
0.0
 30
0.0
  3
*D2
  1

  0
LINE
  5
199E
  8
0
  6
CONTINUOUS
 10
700.0
 20
429.999451
 30
0.0
 11
680.0
 21
429.999451
 31
0.0
  0
LINE
  5
199F
  8
0
  6
CONTINUOUS
 10
700.0
 20
414.999451
 30
0.0
 11
680.0
 21
414.999451
 31
0.0
  0
LINE
  5
19A0
  8
0
  6
CONTINUOUS
 10
680.0
 20
429.999451
 30
0.0
 11
680.0
 21
414.999451
 31
0.0
  0
INSERT
  5
19A1
  8
0
  2
_SMALL
 10
680.0
 20
429.999451
 30
0.0
 41
4.0
 42
4.0
 43
4.0
 50
90.0
  0
INSERT
  5
19A2
  8
0
  2
_SMALL
 10
680.0
 20
414.999451
 30
0.0
 41
4.0
 42
4.0
 43
4.0
 50
270.0
  0
TEXT
  5
19A3
  8
0
  6
CONTINUOUS
 10
678.0
 20
418.499451
 30
0.0
 40
7.0
  1
15
 50
90.0
 41
0.8
  7
TEXT_S
  0
POINT
  5
19A4
  8
DEFPOINTS
 62
     0
 10
700.0
 20
429.999451
 30
0.0
  0
POINT
  5
19A5
  8
DEFPOINTS
 62
     0
 10
700.0
 20
414.999451
 30
0.0
  0
POINT
  5
19A6
  8
DEFPOINTS
 62
     0
 10
680.0
 20
414.999451
 30
0.0
  0
ENDBLK
  5
918
  8
0
  0
BLOCK
  8
0
  2
*D3
 70
     1
 10
0.0
 20
0.0
 30
0.0
  3
*D3
  1

  0
LINE
  5
19A7
  8
0
  6
CONTINUOUS
 10
960.0
 20
449.999451
 30
0.0
 11
960.0
 21
469.999451
 31
0.0
  0
LINE
  5
19A8
  8
0
  6
CONTINUOUS
 10
1000.0
 20
449.999451
 30
0.0
 11
1000.0
 21
469.999451
 31
0.0
  0
LINE
  5
19A9
  8
0
  6
CONTINUOUS
 10
960.0
 20
469.999451
 30
0.0
 11
1000.0
 21
469.999451
 31
0.0
  0
INSERT
  5
19AA
  8
0
  2
_SMALL
 10
960.0
 20
469.999451
 30
0.0
 41
4.0
 42
4.0
 43
4.0
 50
180.0
  0
INSERT
  5
19AB
  8
0
  2
_SMALL
 10
1000.0
 20
469.999451
 30
0.0
 41
4.0
 42
4.0
 43
4.0
  0
TEXT
  5
19AC
  8
0
  6
CONTINUOUS
 10
975.466667
 20
471.999451
 30
0.0
 40
7.0
  1
40
 41
0.8
  7
TEXT_S
  0
POINT
  5
19AD
  8
DEFPOINTS
 62
     0
 10
960.0
 20
449.999451
 30
0.0
  0
POINT
  5
19AE
  8
DEFPOINTS
 62
     0
 10
1000.0
 20
449.999451
 30
0.0
  0
POINT
  5
19AF
  8
DEFPOINTS
 62
     0
 10
1000.0
 20
469.999451
 30
0.0
  0
ENDBLK
  5
924
  8
0
  0
BLOCK
  8
0
  2
*D4
 70
     1
 10
0.0
 20
0.0
 30
0.0
  3
*D4
  1

  0
LINE
  5
19B0
  8
0
  6
CONTINUOUS
 10
720.0
 20
449.999451
 30
0.0
 11
720.0
 21
469.999451
 31
0.0
  0
LINE
  5
19B1
  8
0
  6
CONTINUOUS
 10
760.0
 20
449.999451
 30
0.0
 11
760.0
 21
469.999451
 31
0.0
  0
LINE
  5
19B2
  8
0
  6
CONTINUOUS
 10
720.0
 20
469.999451
 30
0.0
 11
760.0
 21
469.999451
 31
0.0
  0
INSERT
  5
19B3
  8
0
  2
_SMALL
 10
720.0
 20
469.999451
 30
0.0
 41
4.0
 42
4.0
 43
4.0
 50
180.0
  0
INSERT
  5
19B4
  8
0
  2
_SMALL
 10
760.0
 20
469.999451
 30
0.0
 41
4.0
 42
4.0
 43
4.0
  0
TEXT
  5
19B5
  8
0
  6
CONTINUOUS
 10
735.466667
 20
471.999451
 30
0.0
 40
7.0
  1
40
 41
0.8
  7
TEXT_S
  0
POINT
  5
19B6
  8
DEFPOINTS
 62
     0
 10
720.0
 20
449.999451
 30
0.0
  0
POINT
  5
19B7
  8
DEFPOINTS
 62
     0
 10
760.0
 20
449.999451
 30
0.0
  0
POINT
  5
19B8
  8
DEFPOINTS
 62
     0
 10
760.0
 20
469.999451
 30
0.0
  0
ENDBLK
  5
930
  8
0
  0
BLOCK
  8
0
  2
*D5
 70
     1
 10
0.0
 20
0.0
 30
0.0
  3
*D5
  1

  0
LINE
  5
1B79
  8
0
  6
CONTINUOUS
 10
1025.0
 20
280.0
 30
0.0
 11
1025.0
 21
220.0
 31
0.0
  0
LINE
  5
1B7A
  8
0
  6
CONTINUOUS
 10
1025.0
 20
220.0
 30
0.0
 11
960.0
 21
220.0
 31
0.0
  0
INSERT
  5
1B7B
  8
0
  2
_SMALL
 10
1025.0
 20
220.0
 30
0.0
 41
4.0
 42
4.0
 43
4.0
  0
TEXT
  5
1B7C
  8
0
  6
CONTINUOUS
 10
987.966667
 20
222.0
 30
0.0
 40
7.0
  1
65
 41
0.8
  7
TEXT_S
  0
POINT
  5
1B7D
  8
DEFPOINTS
 62
     0
 10
1025.0
 20
280.0
 30
0.0
  0
POINT
  5
1B7E
  8
DEFPOINTS
 62
     0
 10
960.0
 20
280.0
 30
0.0
  0
POINT
  5
1B7F
  8
DEFPOINTS
 62
     0
 10
960.0
 20
220.0
 30
0.0
  0
ENDBLK
  5
954
  8
0
  0
BLOCK
  8
0
  2
*D6
 70
     1
 10
0.0
 20
0.0
 30
0.0
  3
*D6
  1

  0
LINE
  5
19C2
  8
0
  6
CONTINUOUS
 10
1020.0
 20
329.999451
 30
0.0
 11
1039.998535
 21
329.999451
 31
0.0
  0
LINE
  5
19C3
  8
0
  6
CONTINUOUS
 10
1020.0
 20
344.999451
 30
0.0
 11
1039.998535
 21
344.999451
 31
0.0
  0
LINE
  5
19C4
  8
0
  6
CONTINUOUS
 10
1039.998535
 20
329.999451
 30
0.0
 11
1039.998535
 21
344.999451
 31
0.0
  0
INSERT
  5
19C5
  8
0
  2
_SMALL
 10
1039.998535
 20
329.999451
 30
0.0
 41
4.0
 42
4.0
 43
4.0
 50
270.0
  0
INSERT
  5
19C6
  8
0
  2
_SMALL
 10
1039.998535
 20
344.999451
 30
0.0
 41
4.0
 42
4.0
 43
4.0
 50
90.0
  0
TEXT
  5
19C7
  8
0
  6
CONTINUOUS
 10
1037.998535
 20
333.499451
 30
0.0
 40
7.0
  1
15
 50
90.0
 41
0.8
  7
TEXT_S
  0
POINT
  5
19C8
  8
DEFPOINTS
 62
     0
 10
1020.0
 20
329.999451
 30
0.0
  0
POINT
  5
19C9
  8
DEFPOINTS
 62
     0
 10
1020.0
 20
344.999451
 30
0.0
  0
POINT
  5
19CA
  8
DEFPOINTS
 62
     0
 10
1039.998535
 20
344.999451
 30
0.0
  0
ENDBLK
  5
95E
  8
0
  0
BLOCK
  8
0
  2
*D7
 70
     1
 10
0.0
 20
0.0
 30
0.0
  3
*D7
  1

  0
LINE
  5
19CB
  8
0
  6
CONTINUOUS
 10
974.999985
 20
280.000015
 30
0.0
 11
974.999985
 21
240.000015
 31
0.0
  0
LINE
  5
19CC
  8
0
  6
CONTINUOUS
 10
999.999985
 20
280.000015
 30
0.0
 11
999.999985
 21
240.000015
 31
0.0
  0
LINE
  5
19CD
  8
0
  6
CONTINUOUS
 10
974.999985
 20
240.000015
 30
0.0
 11
999.999985
 21
240.000015
 31
0.0
  0
INSERT
  5
19CE
  8
0
  2
_SMALL
 10
974.999985
 20
240.000015
 30
0.0
 41
4.0
 42
4.0
 43
4.0
 50
180.0
  0
INSERT
  5
19CF
  8
0
  2
_SMALL
 10
999.999985
 20
240.000015
 30
0.0
 41
4.0
 42
4.0
 43
4.0
  0
TEXT
  5
19D0
  8
0
  6
CONTINUOUS
 10
982.966651
 20
242.000015
 30
0.0
 40
7.0
  1
25
 41
0.8
  7
TEXT_S
  0
POINT
  5
19D1
  8
DEFPOINTS
 62
     0
 10
974.999985
 20
280.000015
 30
0.0
  0
POINT
  5
19D2
  8
DEFPOINTS
 62
     0
 10
999.999985
 20
280.000015
 30
0.0
  0
POINT
  5
19D3
  8
DEFPOINTS
 62
     0
 10
999.999985
 20
240.000015
 30
0.0
  0
ENDBLK
  5
96A
  8
0
  0
BLOCK
  8
0
  2
*D8
 70
     1
 10
0.0
 20
0.0
 30
0.0
  3
*D8
  1

  0
LINE
  5
19D4
  8
0
  6
CONTINUOUS
 10
960.0
 20
280.000015
 30
0.0
 11
960.0
 21
240.000015
 31
0.0
  0
LINE
  5
19D5
  8
0
  6
CONTINUOUS
 10
974.999985
 20
280.000015
 30
0.0
 11
974.999985
 21
240.000015
 31
0.0
  0
LINE
  5
19D6
  8
0
  6
CONTINUOUS
 10
960.0
 20
240.000015
 30
0.0
 11
974.999985
 21
240.000015
 31
0.0
  0
INSERT
  5
19D7
  8
0
  2
_SMALL
 10
960.0
 20
240.000015
 30
0.0
 41
4.0
 42
4.0
 43
4.0
 50
180.0
  0
INSERT
  5
19D8
  8
0
  2
_SMALL
 10
974.999985
 20
240.000015
 30
0.0
 41
4.0
 42
4.0
 43
4.0
  0
TEXT
  5
19D9
  8
0
  6
CONTINUOUS
 10
963.499992
 20
242.000015
 30
0.0
 40
7.0
  1
15
 41
0.8
  7
TEXT_S
  0
POINT
  5
19DA
  8
DEFPOINTS
 62
     0
 10
960.0
 20
280.000015
 30
0.0
  0
POINT
  5
19DB
  8
DEFPOINTS
 62
     0
 10
974.999985
 20
280.000015
 30
0.0
  0
POINT
  5
19DC
  8
DEFPOINTS
 62
     0
 10
974.999985
 20
240.000015
 30
0.0
  0
ENDBLK
  5
976
  8
0
  0
BLOCK
  8
0
  2
*D9
 70
     1
 10
0.0
 20
0.0
 30
0.0
  3
*D9
  1

  0
LINE
  5
19DD
  8
0
  6
CONTINUOUS
 10
969.999985
 20
280.000015
 30
0.0
 11
969.999985
 21
260.000015
 31
0.0
  0
LINE
  5
19DE
  8
0
  6
CONTINUOUS
 10
974.999985
 20
280.000015
 30
0.0
 11
974.999985
 21
260.000015
 31
0.0
  0
LINE
  5
19DF
  8
0
  6
CONTINUOUS
 10
969.999985
 20
260.000015
 30
0.0
 11
974.999985
 21
260.000015
 31
0.0
  0
INSERT
  5
19E0
  8
0
  2
_SMALL
 10
969.999985
 20
260.000015
 30
0.0
 41
4.0
 42
4.0
 43
4.0
  0
INSERT
  5
19E1
  8
0
  2
_SMALL
 10
974.999985
 20
260.000015
 30
0.0
 41
4.0
 42
4.0
 43
4.0
 50
180.0
  0
TEXT
  5
19E2
  8
0
  6
CONTINUOUS
 10
970.633318
 20
262.000015
 30
0.0
 40
7.0
  1
5
 41
0.8
  7
TEXT_S
  0
POINT
  5
19E3
  8
DEFPOINTS
 62
     0
 10
969.999985
 20
280.000015
 30
0.0
  0
POINT
  5
19E4
  8
DEFPOINTS
 62
     0
 10
974.999985
 20
280.000015
 30
0.0
  0
POINT
  5
19E5
  8
DEFPOINTS
 62
     0
 10
974.999985
 20
260.000015
 30
0.0
  0
ENDBLK
  5
982
  8
0
  0
BLOCK
  8
0
  2
*D10
 70
     1
 10
0.0
 20
0.0
 30
0.0
  3
*D10
  1

  0
LINE
  5
19E8
  8
0
 10
760.0
 20
280.000015
 30
0.0
 11
760.0
 21
240.000015
 31
0.0
  0
LINE
  5
19E9
  8
0
 10
745.0
 20
280.000015
 30
0.0
 11
745.0
 21
240.000015
 31
0.0
  0
LINE
  5
19EA
  8
0
 10
760.0
 20
240.000015
 30
0.0
 11
745.0
 21
240.000015
 31
0.0
  0
INSERT
  5
19EB
  8
0
  2
_SMALL
 10
760.0
 20
240.000015
 30
0.0
 41
4.0
 42
4.0
 43
4.0
  0
INSERT
  5
19EC
  8
0
  2
_SMALL
 10
745.0
 20
240.000015
 30
0.0
 41
4.0
 42
4.0
 43
4.0
 50
180.0
  0
TEXT
  5
19ED
  8
0
  6
CONTINUOUS
 10
748.5
 20
242.000015
 30
0.0
 40
7.0
  1
15
 41
0.8
  7
TEXT_S
  0
POINT
  5
19EE
  8
DEFPOINTS
 62
     0
 10
760.0
 20
280.000015
 30
0.0
  0
POINT
  5
19EF
  8
DEFPOINTS
 62
     0
 10
745.0
 20
280.000015
 30
0.0
  0
POINT
  5
19F0
  8
DEFPOINTS
 62
     0
 10
745.0
 20
240.000015
 30
0.0
  0
ENDBLK
  5
98E
  8
0
  0
BLOCK
  8
0
  2
*D11
 70
     1
 10
0.0
 20
0.0
 30
0.0
  3
*D11
  1

  0
LINE
  5
19F1
  8
0
 10
760.0
 20
280.000015
 30
0.0
 11
760.0
 21
220.000015
 31
0.0
  0
LINE
  5
19F2
  8
0
 10
960.0
 20
280.000015
 30
0.0
 11
960.0
 21
220.000015
 31
0.0
  0
LINE
  5
19F3
  8
0
 10
760.0
 20
220.000015
 30
0.0
 11
960.0
 21
220.000015
 31
0.0
  0
TEXT
  5
19F4
  8
0
  6
CONTINUOUS
 10
857.333333
 20
222.000015
 30
0.0
 40
7.0
  1
W
 41
0.8
  7
TEXT_S
  0
POINT
  5
19F5
  8
DEFPOINTS
 62
     0
 10
760.0
 20
280.000015
 30
0.0
  0
POINT
  5
19F6
  8
DEFPOINTS
 62
     0
 10
960.0
 20
280.000015
 30
0.0
  0
POINT
  5
19F7
  8
DEFPOINTS
 62
     0
 10
960.0
 20
220.000015
 30
0.0
  0
ENDBLK
  5
99A
  8
0
  0
BLOCK
  8
0
  2
*D12
 70
     1
 10
0.0
 20
0.0
 30
0.0
  3
*D12
  1

  0
LINE
  5
19F8
  8
0
 10
750.0
 20
280.000015
 30
0.0
 11
750.0
 21
260.000015
 31
0.0
  0
LINE
  5
19F9
  8
0
 10
745.0
 20
280.000015
 30
0.0
 11
745.0
 21
260.000015
 31
0.0
  0
LINE
  5
19FA
  8
0
 10
750.0
 20
260.000015
 30
0.0
 11
745.0
 21
260.000015
 31
0.0
  0
INSERT
  5
19FB
  8
0
  2
_SMALL
 10
750.0
 20
260.000015
 30
0.0
 41
4.0
 42
4.0
 43
4.0
 50
180.0
  0
INSERT
  5
19FC
  8
0
  2
_SMALL
 10
745.0
 20
260.000015
 30
0.0
 41
4.0
 42
4.0
 43
4.0
  0
TEXT
  5
19FD
  8
0
  6
CONTINUOUS
 10
745.633333
 20
262.000015
 30
0.0
 40
7.0
  1
5
 41
0.8
  7
TEXT_S
  0
POINT
  5
19FE
  8
DEFPOINTS
 62
     0
 10
750.0
 20
280.000015
 30
0.0
  0
POINT
  5
19FF
  8
DEFPOINTS
 62
     0
 10
745.0
 20
280.000015
 30
0.0
  0
POINT
  5
1A00
  8
DEFPOINTS
 62
     0
 10
745.0
 20
260.000015
 30
0.0
  0
ENDBLK
  5
9A4
  8
0
  0
BLOCK
  8
0
  2
*D13
 70
     1
 10
0.0
 20
0.0
 30
0.0
  3
*D13
  1

  0
LINE
  5
1A03
  8
0
 10
969.999985
 20
280.000015
 30
0.0
 11
969.999985
 21
260.000015
 31
0.0
  0
LINE
  5
1A04
  8
0
 10
750.0
 20
280.000015
 30
0.0
 11
750.0
 21
260.000015
 31
0.0
  0
LINE
  5
1A05
  8
0
 10
969.999985
 20
260.000015
 30
0.0
 11
750.0
 21
260.000015
 31
0.0
  0
INSERT
  5
1A06
  8
0
  2
_SMALL
 10
969.999985
 20
260.000015
 30
0.0
 41
4.0
 42
4.0
 43
4.0
  0
INSERT
  5
1A07
  8
0
  2
_SMALL
 10
750.0
 20
260.000015
 30
0.0
 41
4.0
 42
4.0
 43
4.0
 50
180.0
  0
TEXT
  5
1A08
  8
0
  6
CONTINUOUS
 10
854.533326
 20
262.000015
 30
0.0
 40
7.0
  1
DW
 41
0.8
  7
TEXT_S
  0
POINT
  5
1A09
  8
DEFPOINTS
 62
     0
 10
969.999985
 20
280.000015
 30
0.0
  0
POINT
  5
1A0A
  8
DEFPOINTS
 62
     0
 10
750.0
 20
280.000015
 30
0.0
  0
POINT
  5
1A0B
  8
DEFPOINTS
 62
     0
 10
750.0
 20
260.000015
 30
0.0
  0
ENDBLK
  5
9B0
  8
0
  0
BLOCK
  8
0
  2
*D14
 70
     1
 10
0.0
 20
0.0
 30
0.0
  3
*D14
  1

  0
LINE
  5
1B80
  8
0
  6
CONTINUOUS
 10
695.0
 20
280.000015
 30
0.0
 11
695.0
 21
220.000015
 31
0.0
  0
LINE
  5
1B81
  8
0
  6
CONTINUOUS
 10
695.0
 20
220.000015
 30
0.0
 11
760.0
 21
220.000015
 31
0.0
  0
INSERT
  5
1B82
  8
0
  2
_SMALL
 10
695.0
 20
220.000015
 30
0.0
 41
4.0
 42
4.0
 43
4.0
 50
180.0
  0
TEXT
  5
1B83
  8
0
  6
CONTINUOUS
 10
722.966667
 20
222.000015
 30
0.0
 40
7.0
  1
65
 41
0.8
  7
TEXT_S
  0
POINT
  5
1B84
  8
DEFPOINTS
 62
     0
 10
695.0
 20
280.000015
 30
0.0
  0
POINT
  5
1B85
  8
DEFPOINTS
 62
     0
 10
760.0
 20
280.000015
 30
0.0
  0
POINT
  5
1B86
  8
DEFPOINTS
 62
     0
 10
760.0
 20
220.000015
 30
0.0
  0
ENDBLK
  5
9BC
  8
0
  0
BLOCK
  8
0
  2
*D15
 70
     1
 10
0.0
 20
0.0
 30
0.0
  3
*D15
  1

  0
LINE
  5
1A0C
  8
0
 10
720.0
 20
280.000015
 30
0.0
 11
720.0
 21
240.000015
 31
0.0
  0
LINE
  5
1A0D
  8
0
 10
745.0
 20
280.000015
 30
0.0
 11
745.0
 21
240.000015
 31
0.0
  0
LINE
  5
1A0E
  8
0
 10
720.0
 20
240.000015
 30
0.0
 11
745.0
 21
240.000015
 31
0.0
  0
INSERT
  5
1A0F
  8
0
  2
_SMALL
 10
720.0
 20
240.000015
 30
0.0
 41
4.0
 42
4.0
 43
4.0
 50
180.0
  0
INSERT
  5
1A10
  8
0
  2
_SMALL
 10
745.0
 20
240.000015
 30
0.0
 41
4.0
 42
4.0
 43
4.0
  0
TEXT
  5
1A11
  8
0
  6
CONTINUOUS
 10
727.966667
 20
242.000015
 30
0.0
 40
7.0
  1
25
 41
0.8
  7
TEXT_S
  0
POINT
  5
1A12
  8
DEFPOINTS
 62
     0
 10
720.0
 20
280.000015
 30
0.0
  0
POINT
  5
1A13
  8
DEFPOINTS
 62
     0
 10
745.0
 20
280.000015
 30
0.0
  0
POINT
  5
1A14
  8
DEFPOINTS
 62
     0
 10
745.0
 20
240.000015
 30
0.0
  0
ENDBLK
  5
9C6
  8
0
  0
BLOCK
  8
0
  2
*D16
 70
     1
 10
0.0
 20
0.0
 30
0.0
  3
*D16
  1

  0
LINE
  5
1A15
  8
0
  6
CONTINUOUS
 10
700.0
 20
344.999451
 30
0.0
 11
680.0
 21
344.999451
 31
0.0
  0
LINE
  5
1A16
  8
0
  6
CONTINUOUS
 10
700.0
 20
329.999451
 30
0.0
 11
680.0
 21
329.999451
 31
0.0
  0
LINE
  5
1A17
  8
0
  6
CONTINUOUS
 10
680.0
 20
344.999451
 30
0.0
 11
680.0
 21
329.999451
 31
0.0
  0
INSERT
  5
1A18
  8
0
  2
_SMALL
 10
680.0
 20
344.999451
 30
0.0
 41
4.0
 42
4.0
 43
4.0
 50
90.0
  0
INSERT
  5
1A19
  8
0
  2
_SMALL
 10
680.0
 20
329.999451
 30
0.0
 41
4.0
 42
4.0
 43
4.0
 50
270.0
  0
TEXT
  5
1A1A
  8
0
  6
CONTINUOUS
 10
678.0
 20
333.499451
 30
0.0
 40
7.0
  1
15
 50
90.0
 41
0.8
  7
TEXT_S
  0
POINT
  5
1A1B
  8
DEFPOINTS
 62
     0
 10
700.0
 20
344.999451
 30
0.0
  0
POINT
  5
1A1C
  8
DEFPOINTS
 62
     0
 10
700.0
 20
329.999451
 30
0.0
  0
POINT
  5
1A1D
  8
DEFPOINTS
 62
     0
 10
680.0
 20
329.999451
 30
0.0
  0
ENDBLK
  5
9D2
  8
0
  0
BLOCK
  8
0
  2
*D17
 70
     1
 10
0.0
 20
0.0
 30
0.0
  3
*D17
  1

  0
LINE
  5
1A1E
  8
0
 10
227.0
 20
117.999451
 30
0.0
 11
227.0
 21
97.999451
 31
0.0
  0
LINE
  5
1A1F
  8
0
 10
270.0
 20
117.999451
 30
0.0
 11
270.0
 21
97.999451
 31
0.0
  0
LINE
  5
1A20
  8
0
 10
227.0
 20
97.999451
 30
0.0
 11
270.0
 21
97.999451
 31
0.0
  0
INSERT
  5
1A21
  8
0
  2
_SMALL
 10
227.0
 20
97.999451
 30
0.0
 41
4.0
 42
4.0
 43
4.0
 50
180.0
  0
INSERT
  5
1A22
  8
0
  2
_SMALL
 10
270.0
 20
97.999451
 30
0.0
 41
4.0
 42
4.0
 43
4.0
  0
TEXT
  5
1A23
  8
0
  6
CONTINUOUS
 10
243.966667
 20
99.999451
 30
0.0
 40
7.0
  1
43
 41
0.8
  7
TEXT_S
  0
POINT
  5
1A24
  8
DEFPOINTS
 62
     0
 10
227.0
 20
117.999451
 30
0.0
  0
POINT
  5
1A25
  8
DEFPOINTS
 62
     0
 10
270.0
 20
117.999451
 30
0.0
  0
POINT
  5
1A26
  8
DEFPOINTS
 62
     0
 10
270.0
 20
97.999451
 30
0.0
  0
ENDBLK
  5
9DE
  8
0
  0
BLOCK
  8
0
  2
*D18
 70
     1
 10
0.0
 20
0.0
 30
0.0
  3
*D18
  1

  0
LINE
  5
1A27
  8
0
 10
355.0
 20
159.999451
 30
0.0
 11
385.0
 21
159.999451
 31
0.0
  0
LINE
  5
1A28
  8
0
 10
355.0
 20
189.999451
 30
0.0
 11
385.0
 21
189.999451
 31
0.0
  0
LINE
  5
1A29
  8
0
 10
385.0
 20
159.999451
 30
0.0
 11
385.0
 21
189.999451
 31
0.0
  0
INSERT
  5
1A2A
  8
0
  2
_SMALL
 10
385.0
 20
159.999451
 30
0.0
 41
4.0
 42
4.0
 43
4.0
 50
270.0
  0
INSERT
  5
1A2B
  8
0
  2
_SMALL
 10
385.0
 20
189.999451
 30
0.0
 41
4.0
 42
4.0
 43
4.0
 50
90.0
  0
TEXT
  5
1A2C
  8
0
  6
CONTINUOUS
 10
383.0
 20
170.466117
 30
0.0
 40
7.0
  1
30
 50
90.0
 41
0.8
  7
TEXT_S
  0
POINT
  5
1A2D
  8
DEFPOINTS
 62
     0
 10
355.0
 20
159.999451
 30
0.0
  0
POINT
  5
1A2E
  8
DEFPOINTS
 62
     0
 10
355.0
 20
189.999451
 30
0.0
  0
POINT
  5
1A2F
  8
DEFPOINTS
 62
     0
 10
385.0
 20
189.999451
 30
0.0
  0
ENDBLK
  5
9EA
  8
0
  0
BLOCK
  8
0
  2
*D19
 70
     1
 10
0.0
 20
0.0
 30
0.0
  3
*D19
  1

  0
LINE
  5
1A30
  8
0
  6
CONTINUOUS
 10
230.0
 20
229.999451
 30
0.0
 11
230.0
 21
249.999451
 31
0.0
  0
LINE
  5
1A31
  8
0
  6
CONTINUOUS
 10
233.0
 20
229.999451
 30
0.0
 11
233.0
 21
249.999451
 31
0.0
  0
LINE
  5
1A32
  8
0
  6
CONTINUOUS
 10
230.0
 20
249.999451
 30
0.0
 11
233.0
 21
249.999451
 31
0.0
  0
INSERT
  5
1A33
  8
0
  2
_SMALL
 10
230.0
 20
249.999451
 30
0.0
 41
4.0
 42
4.0
 43
4.0
  0
INSERT
  5
1A34
  8
0
  2
_SMALL
 10
233.0
 20
249.999451
 30
0.0
 41
4.0
 42
4.0
 43
4.0
 50
180.0
  0
TEXT
  5
1A35
  8
0
  6
CONTINUOUS
 10
225.233333
 20
251.999451
 30
0.0
 40
7.0
  1
3
 41
0.8
  7
TEXT_S
  0
POINT
  5
1A36
  8
DEFPOINTS
 62
     0
 10
230.0
 20
229.999451
 30
0.0
  0
POINT
  5
1A37
  8
DEFPOINTS
 62
     0
 10
233.0
 20
229.999451
 30
0.0
  0
POINT
  5
1A38
  8
DEFPOINTS
 62
     0
 10
233.0
 20
249.999451
 30
0.0
  0
ENDBLK
  5
9F6
  8
0
  0
BLOCK
  8
0
  2
*D20
 70
     1
 10
0.0
 20
0.0
 30
0.0
  3
*D20
  1

  0
LINE
  5
1A3B
  8
0
  6
CONTINUOUS
 10
278.0
 20
229.999451
 30
0.0
 11
278.0
 21
249.999451
 31
0.0
  0
LINE
  5
1A3C
  8
0
  6
CONTINUOUS
 10
230.0
 20
229.999451
 30
0.0
 11
230.0
 21
249.999451
 31
0.0
  0
LINE
  5
1A3D
  8
0
  6
CONTINUOUS
 10
278.0
 20
249.999451
 30
0.0
 11
230.0
 21
249.999451
 31
0.0
  0
INSERT
  5
1A3E
  8
0
  2
_SMALL
 10
278.0
 20
249.999451
 30
0.0
 41
4.0
 42
4.0
 43
4.0
  0
INSERT
  5
1A3F
  8
0
  2
_SMALL
 10
230.0
 20
249.999451
 30
0.0
 41
4.0
 42
4.0
 43
4.0
 50
180.0
  0
TEXT
  5
1A40
  8
0
  6
CONTINUOUS
 10
249.466667
 20
251.999451
 30
0.0
 40
7.0
  1
48
 41
0.8
  7
TEXT_S
  0
POINT
  5
1A41
  8
DEFPOINTS
 62
     0
 10
278.0
 20
229.999451
 30
0.0
  0
POINT
  5
1A42
  8
DEFPOINTS
 62
     0
 10
230.0
 20
229.999451
 30
0.0
  0
POINT
  5
1A43
  8
DEFPOINTS
 62
     0
 10
230.0
 20
249.999451
 30
0.0
  0
ENDBLK
  5
A02
  8
0
  0
BLOCK
  8
0
  2
*D21
 70
     1
 10
0.0
 20
0.0
 30
0.0
  3
*D21
  1

  0
LINE
  5
1A44
  8
0
  6
CONTINUOUS
 10
327.0
 20
200.276825
 30
0.0
 11
327.0
 21
249.999451
 31
0.0
  0
LINE
  5
1A45
  8
0
  6
CONTINUOUS
 10
278.0
 20
229.999451
 30
0.0
 11
278.0
 21
249.999451
 31
0.0
  0
LINE
  5
1A46
  8
0
  6
CONTINUOUS
 10
327.0
 20
249.999451
 30
0.0
 11
278.0
 21
249.999451
 31
0.0
  0
INSERT
  5
1A47
  8
0
  2
_SMALL
 10
327.0
 20
249.999451
 30
0.0
 41
4.0
 42
4.0
 43
4.0
  0
INSERT
  5
1A48
  8
0
  2
_SMALL
 10
278.0
 20
249.999451
 30
0.0
 41
4.0
 42
4.0
 43
4.0
 50
180.0
  0
TEXT
  5
1A49
  8
0
  6
CONTINUOUS
 10
298.1
 20
251.999451
 30
0.0
 40
7.0
  1
49
 41
0.8
  7
TEXT_S
  0
POINT
  5
1A4A
  8
DEFPOINTS
 62
     0
 10
327.0
 20
200.276825
 30
0.0
  0
POINT
  5
1A4B
  8
DEFPOINTS
 62
     0
 10
278.0
 20
229.999451
 30
0.0
  0
POINT
  5
1A4C
  8
DEFPOINTS
 62
     0
 10
278.0
 20
249.999451
 30
0.0
  0
ENDBLK
  5
A0E
  8
0
  0
BLOCK
  8
0
  2
*D22
 70
     1
 10
0.0
 20
0.0
 30
0.0
  3
*D22
  1

  0
LINE
  5
1A4D
  8
0
  6
CONTINUOUS
 10
327.0
 20
229.999451
 30
0.0
 11
327.0
 21
249.999451
 31
0.0
  0
LINE
  5
1A4E
  8
0
  6
CONTINUOUS
 10
330.0
 20
229.999451
 30
0.0
 11
330.0
 21
249.999451
 31
0.0
  0
LINE
  5
1A4F
  8
0
  6
CONTINUOUS
 10
327.0
 20
249.999451
 30
0.0
 11
330.0
 21
249.999451
 31
0.0
  0
INSERT
  5
1A50
  8
0
  2
_SMALL
 10
327.0
 20
249.999451
 30
0.0
 41
4.0
 42
4.0
 43
4.0
  0
INSERT
  5
1A51
  8
0
  2
_SMALL
 10
330.0
 20
249.999451
 30
0.0
 41
4.0
 42
4.0
 43
4.0
 50
180.0
  0
TEXT
  5
1A52
  8
0
  6
CONTINUOUS
 10
325.833333
 20
251.999451
 30
0.0
 40
7.0
  1
3
 41
0.8
  7
TEXT_S
  0
POINT
  5
1A53
  8
DEFPOINTS
 62
     0
 10
327.0
 20
229.999451
 30
0.0
  0
POINT
  5
1A54
  8
DEFPOINTS
 62
     0
 10
330.0
 20
229.999451
 30
0.0
  0
POINT
  5
1A55
  8
DEFPOINTS
 62
     0
 10
330.0
 20
249.999451
 30
0.0
  0
ENDBLK
  5
A1A
  8
0
  0
BLOCK
  8
0
  2
*D23
 70
     1
 10
0.0
 20
0.0
 30
0.0
  3
*D23
  1

  0
LINE
  5
1A63
  8
0
  6
CONTINUOUS
 10
233.0
 20
584.999405
 30
0.0
 11
233.0
 21
604.999405
 31
0.0
  0
LINE
  5
1A64
  8
0
  6
CONTINUOUS
 10
203.0
 20
584.999405
 30
0.0
 11
203.0
 21
604.999405
 31
0.0
  0
LINE
  5
1A65
  8
0
  6
CONTINUOUS
 10
233.0
 20
604.999405
 30
0.0
 11
203.0
 21
604.999405
 31
0.0
  0
INSERT
  5
1A66
  8
0
  2
_SMALL
 10
233.0
 20
604.999405
 30
0.0
 41
4.0
 42
4.0
 43
4.0
  0
INSERT
  5
1A67
  8
0
  2
_SMALL
 10
203.0
 20
604.999405
 30
0.0
 41
4.0
 42
4.0
 43
4.0
 50
180.0
  0
TEXT
  5
1A68
  8
0
  6
CONTINUOUS
 10
213.466667
 20
606.999405
 30
0.0
 40
7.0
  1
30
 41
0.8
  7
TEXT_S
  0
POINT
  5
1A69
  8
DEFPOINTS
 62
     0
 10
233.0
 20
584.999405
 30
0.0
  0
POINT
  5
1A6A
  8
DEFPOINTS
 62
     0
 10
203.0
 20
584.999405
 30
0.0
  0
POINT
  5
1A6B
  8
DEFPOINTS
 62
     0
 10
203.0
 20
604.999405
 30
0.0
  0
ENDBLK
  5
A32
  8
0
  0
BLOCK
  8
0
  2
*D24
 70
     1
 10
0.0
 20
0.0
 30
0.0
  3
*D24
  1

  0
LINE
  5
1A6C
  8
0
  6
CONTINUOUS
 10
270.0
 20
584.999405
 30
0.0
 11
270.0
 21
604.999405
 31
0.0
  0
LINE
  5
1A6D
  8
0
  6
CONTINUOUS
 10
233.0
 20
584.999405
 30
0.0
 11
233.0
 21
604.999405
 31
0.0
  0
LINE
  5
1A6E
  8
0
  6
CONTINUOUS
 10
270.0
 20
604.999405
 30
0.0
 11
233.0
 21
604.999405
 31
0.0
  0
INSERT
  5
1A6F
  8
0
  2
_SMALL
 10
270.0
 20
604.999405
 30
0.0
 41
4.0
 42
4.0
 43
4.0
  0
INSERT
  5
1A70
  8
0
  2
_SMALL
 10
233.0
 20
604.999405
 30
0.0
 41
4.0
 42
4.0
 43
4.0
 50
180.0
  0
TEXT
  5
1A71
  8
0
  6
CONTINUOUS
 10
246.966667
 20
606.999405
 30
0.0
 40
7.0
  1
37
 41
0.8
  7
TEXT_S
  0
POINT
  5
1A72
  8
DEFPOINTS
 62
     0
 10
270.0
 20
584.999405
 30
0.0
  0
POINT
  5
1A73
  8
DEFPOINTS
 62
     0
 10
233.0
 20
584.999405
 30
0.0
  0
POINT
  5
1A74
  8
DEFPOINTS
 62
     0
 10
233.0
 20
604.999405
 30
0.0
  0
ENDBLK
  5
A3E
  8
0
  0
BLOCK
  8
0
  2
*D25
 70
     1
 10
0.0
 20
0.0
 30
0.0
  3
*D25
  1

  0
LINE
  5
1A75
  8
0
  6
CONTINUOUS
 10
312.0
 20
584.999405
 30
0.0
 11
312.0
 21
604.999405
 31
0.0
  0
LINE
  5
1A76
  8
0
  6
CONTINUOUS
 10
327.0
 20
584.999405
 30
0.0
 11
327.0
 21
604.999405
 31
0.0
  0
LINE
  5
1A77
  8
0
  6
CONTINUOUS
 10
312.0
 20
604.999405
 30
0.0
 11
327.0
 21
604.999405
 31
0.0
  0
INSERT
  5
1A78
  8
0
  2
_SMALL
 10
312.0
 20
604.999405
 30
0.0
 41
4.0
 42
4.0
 43
4.0
 50
180.0
  0
INSERT
  5
1A79
  8
0
  2
_SMALL
 10
327.0
 20
604.999405
 30
0.0
 41
4.0
 42
4.0
 43
4.0
  0
TEXT
  5
1A7A
  8
0
  6
CONTINUOUS
 10
315.5
 20
606.999405
 30
0.0
 40
7.0
  1
15
 41
0.8
  7
TEXT_S
  0
POINT
  5
1A7B
  8
DEFPOINTS
 62
     0
 10
312.0
 20
584.999405
 30
0.0
  0
POINT
  5
1A7C
  8
DEFPOINTS
 62
     0
 10
327.0
 20
584.999405
 30
0.0
  0
POINT
  5
1A7D
  8
DEFPOINTS
 62
     0
 10
327.0
 20
604.999405
 30
0.0
  0
ENDBLK
  5
A4A
  8
0
  0
BLOCK
  8
0
  2
*D26
 70
     1
 10
0.0
 20
0.0
 30
0.0
  3
*D26
  1

  0
LINE
  5
1A7E
  8
0
  6
CONTINUOUS
 10
355.0
 20
529.999405
 30
0.0
 11
385.0
 21
529.999405
 31
0.0
  0
LINE
  5
1A7F
  8
0
  6
CONTINUOUS
 10
355.0
 20
489.999405
 30
0.0
 11
385.0
 21
489.999405
 31
0.0
  0
LINE
  5
1A80
  8
0
  6
CONTINUOUS
 10
385.0
 20
529.999405
 30
0.0
 11
385.0
 21
489.999405
 31
0.0
  0
INSERT
  5
1A81
  8
0
  2
_SMALL
 10
385.0
 20
529.999405
 30
0.0
 41
4.0
 42
4.0
 43
4.0
 50
90.0
  0
INSERT
  5
1A82
  8
0
  2
_SMALL
 10
385.0
 20
489.999405
 30
0.0
 41
4.0
 42
4.0
 43
4.0
 50
270.0
  0
TEXT
  5
1A83
  8
0
  6
CONTINUOUS
 10
383.0
 20
505.466072
 30
0.0
 40
7.0
  1
40
 50
90.0
 41
0.8
  7
TEXT_S
  0
POINT
  5
1A84
  8
DEFPOINTS
 62
     0
 10
355.0
 20
529.999405
 30
0.0
  0
POINT
  5
1A85
  8
DEFPOINTS
 62
     0
 10
355.0
 20
489.999405
 30
0.0
  0
POINT
  5
1A86
  8
DEFPOINTS
 62
     0
 10
385.0
 20
489.999405
 30
0.0
  0
ENDBLK
  5
A56
  8
0
  0
BLOCK
  8
0
  2
*D27
 70
     1
 10
0.0
 20
0.0
 30
0.0
  3
*D27
  1

  0
LINE
  5
1A87
  8
0
  6
CONTINUOUS
 10
233.0
 20
474.939438
 30
0.0
 11
233.0
 21
450.059418
 31
0.0
  0
LINE
  5
1A88
  8
0
  6
CONTINUOUS
 10
230.0
 20
474.939438
 30
0.0
 11
230.0
 21
450.059418
 31
0.0
  0
LINE
  5
1A89
  8
0
  6
CONTINUOUS
 10
233.0
 20
450.059418
 30
0.0
 11
230.0
 21
450.059418
 31
0.0
  0
INSERT
  5
1A8A
  8
0
  2
_SMALL
 10
233.0
 20
450.059418
 30
0.0
 41
4.0
 42
4.0
 43
4.0
 50
180.0
  0
INSERT
  5
1A8B
  8
0
  2
_SMALL
 10
230.0
 20
450.059418
 30
0.0
 41
4.0
 42
4.0
 43
4.0
  0
TEXT
  5
1A8C
  8
0
  6
CONTINUOUS
 10
225.233333
 20
452.059418
 30
0.0
 40
7.0
  1
3
 41
0.8
  7
TEXT_S
  0
POINT
  5
1A8D
  8
DEFPOINTS
 62
     0
 10
233.0
 20
474.939438
 30
0.0
  0
POINT
  5
1A8E
  8
DEFPOINTS
 62
     0
 10
230.0
 20
474.939438
 30
0.0
  0
POINT
  5
1A8F
  8
DEFPOINTS
 62
     0
 10
230.0
 20
450.059418
 30
0.0
  0
ENDBLK
  5
A62
  8
0
  0
BLOCK
  8
0
  2
*D28
 70
     1
 10
0.0
 20
0.0
 30
0.0
  3
*D28
  1

  0
LINE
  5
1A92
  8
0
  6
CONTINUOUS
 10
273.0
 20
474.939438
 30
0.0
 11
273.0
 21
450.059418
 31
0.0
  0
LINE
  5
1A93
  8
0
  6
CONTINUOUS
 10
233.0
 20
474.939438
 30
0.0
 11
233.0
 21
450.059418
 31
0.0
  0
LINE
  5
1A94
  8
0
  6
CONTINUOUS
 10
273.0
 20
450.059418
 30
0.0
 11
233.0
 21
450.059418
 31
0.0
  0
INSERT
  5
1A95
  8
0
  2
_SMALL
 10
273.0
 20
450.059418
 30
0.0
 41
4.0
 42
4.0
 43
4.0
  0
INSERT
  5
1A96
  8
0
  2
_SMALL
 10
233.0
 20
450.059418
 30
0.0
 41
4.0
 42
4.0
 43
4.0
 50
180.0
  0
TEXT
  5
1A97
  8
0
  6
CONTINUOUS
 10
248.466667
 20
452.059418
 30
0.0
 40
7.0
  1
40
 41
0.8
  7
TEXT_S
  0
POINT
  5
1A98
  8
DEFPOINTS
 62
     0
 10
273.0
 20
474.939438
 30
0.0
  0
POINT
  5
1A99
  8
DEFPOINTS
 62
     0
 10
233.0
 20
474.939438
 30
0.0
  0
POINT
  5
1A9A
  8
DEFPOINTS
 62
     0
 10
233.0
 20
450.059418
 30
0.0
  0
ENDBLK
  5
A6E
  8
0
  0
BLOCK
  8
0
  2
*D29
 70
     1
 10
0.0
 20
0.0
 30
0.0
  3
*D29
  1

  0
LINE
  5
1A9B
  8
0
  6
CONTINUOUS
 10
278.0
 20
474.939438
 30
0.0
 11
278.0
 21
450.059418
 31
0.0
  0
LINE
  5
1A9C
  8
0
  6
CONTINUOUS
 10
273.0
 20
474.939438
 30
0.0
 11
273.0
 21
450.059418
 31
0.0
  0
LINE
  5
1A9D
  8
0
  6
CONTINUOUS
 10
278.0
 20
450.059418
 30
0.0
 11
273.0
 21
450.059418
 31
0.0
  0
INSERT
  5
1A9E
  8
0
  2
_SMALL
 10
278.0
 20
450.059418
 30
0.0
 41
4.0
 42
4.0
 43
4.0
 50
180.0
  0
INSERT
  5
1A9F
  8
0
  2
_SMALL
 10
273.0
 20
450.059418
 30
0.0
 41
4.0
 42
4.0
 43
4.0
  0
TEXT
  5
1AA0
  8
0
  6
CONTINUOUS
 10
273.633333
 20
452.059418
 30
0.0
 40
7.0
  1
5
 41
0.8
  7
TEXT_S
  0
POINT
  5
1AA1
  8
DEFPOINTS
 62
     0
 10
278.0
 20
474.939438
 30
0.0
  0
POINT
  5
1AA2
  8
DEFPOINTS
 62
     0
 10
273.0
 20
474.939438
 30
0.0
  0
POINT
  5
1AA3
  8
DEFPOINTS
 62
     0
 10
273.0
 20
450.059418
 30
0.0
  0
ENDBLK
  5
A7A
  8
0
  0
BLOCK
  8
0
  2
*D30
 70
     1
 10
0.0
 20
0.0
 30
0.0
  3
*D30
  1

  0
LINE
  5
1AA6
  8
0
  6
CONTINUOUS
 10
327.0
 20
474.939438
 30
0.0
 11
327.0
 21
450.059418
 31
0.0
  0
LINE
  5
1AA7
  8
0
  6
CONTINUOUS
 10
278.0
 20
474.939438
 30
0.0
 11
278.0
 21
450.059418
 31
0.0
  0
LINE
  5
1AA8
  8
0
  6
CONTINUOUS
 10
327.0
 20
450.059418
 30
0.0
 11
278.0
 21
450.059418
 31
0.0
  0
INSERT
  5
1AA9
  8
0
  2
_SMALL
 10
327.0
 20
450.059418
 30
0.0
 41
4.0
 42
4.0
 43
4.0
  0
INSERT
  5
1AAA
  8
0
  2
_SMALL
 10
278.0
 20
450.059418
 30
0.0
 41
4.0
 42
4.0
 43
4.0
 50
180.0
  0
TEXT
  5
1AAB
  8
0
  6
CONTINUOUS
 10
298.1
 20
452.059418
 30
0.0
 40
7.0
  1
49
 41
0.8
  7
TEXT_S
  0
POINT
  5
1AAC
  8
DEFPOINTS
 62
     0
 10
327.0
 20
474.939438
 30
0.0
  0
POINT
  5
1AAD
  8
DEFPOINTS
 62
     0
 10
278.0
 20
474.939438
 30
0.0
  0
POINT
  5
1AAE
  8
DEFPOINTS
 62
     0
 10
278.0
 20
450.059418
 30
0.0
  0
ENDBLK
  5
A86
  8
0
  0
BLOCK
  8
0
  2
*D31
 70
     1
 10
0.0
 20
0.0
 30
0.0
  3
*D31
  1

  0
LINE
  5
1AAF
  8
0
  6
CONTINUOUS
 10
230.0
 20
474.939438
 30
0.0
 11
230.0
 21
429.999451
 31
0.0
  0
LINE
  5
1AB0
  8
0
  6
CONTINUOUS
 10
330.0
 20
474.939438
 30
0.0
 11
330.0
 21
429.999451
 31
0.0
  0
LINE
  5
1AB1
  8
0
  6
CONTINUOUS
 10
230.0
 20
429.999451
 30
0.0
 11
330.0
 21
429.999451
 31
0.0
  0
INSERT
  5
1AB2
  8
0
  2
_SMALL
 10
230.0
 20
429.999451
 30
0.0
 41
4.0
 42
4.0
 43
4.0
 50
180.0
  0
INSERT
  5
1AB3
  8
0
  2
_SMALL
 10
330.0
 20
429.999451
 30
0.0
 41
4.0
 42
4.0
 43
4.0
  0
TEXT
  5
1AB4
  8
0
  6
CONTINUOUS
 10
273.333333
 20
431.999451
 30
0.0
 40
7.0
  1
100
 41
0.8
  7
TEXT_S
  0
POINT
  5
1AB5
  8
DEFPOINTS
 62
     0
 10
230.0
 20
474.939438
 30
0.0
  0
POINT
  5
1AB6
  8
DEFPOINTS
 62
     0
 10
330.0
 20
474.939438
 30
0.0
  0
POINT
  5
1AB7
  8
DEFPOINTS
 62
     0
 10
330.0
 20
429.999451
 30
0.0
  0
ENDBLK
  5
A92
  8
0
  0
BLOCK
  8
0
  2
*D32
 70
     1
 10
0.0
 20
0.0
 30
0.0
  3
*D32
  1

  0
LINE
  5
1AB8
  8
0
  6
CONTINUOUS
 10
203.0
 20
469.999451
 30
0.0
 11
203.0
 21
429.999451
 31
0.0
  0
LINE
  5
1AB9
  8
0
  6
CONTINUOUS
 10
230.0
 20
474.939438
 30
0.0
 11
230.0
 21
429.999451
 31
0.0
  0
LINE
  5
1ABA
  8
0
  6
CONTINUOUS
 10
203.0
 20
429.999451
 30
0.0
 11
230.0
 21
429.999451
 31
0.0
  0
INSERT
  5
1ABB
  8
0
  2
_SMALL
 10
203.0
 20
429.999451
 30
0.0
 41
4.0
 42
4.0
 43
4.0
 50
180.0
  0
INSERT
  5
1ABC
  8
0
  2
_SMALL
 10
230.0
 20
429.999451
 30
0.0
 41
4.0
 42
4.0
 43
4.0
  0
TEXT
  5
1ABD
  8
0
  6
CONTINUOUS
 10
211.966667
 20
431.999451
 30
0.0
 40
7.0
  1
27
 41
0.8
  7
TEXT_S
  0
POINT
  5
1ABE
  8
DEFPOINTS
 62
     0
 10
203.0
 20
469.999451
 30
0.0
  0
POINT
  5
1ABF
  8
DEFPOINTS
 62
     0
 10
230.0
 20
474.939438
 30
0.0
  0
POINT
  5
1AC0
  8
DEFPOINTS
 62
     0
 10
230.0
 20
429.999451
 30
0.0
  0
ENDBLK
  5
A9E
  8
0
  0
BLOCK
  8
0
  2
*D33
 70
     1
 10
0.0
 20
0.0
 30
0.0
  3
*D33
  1

  0
LINE
  5
1B87
  8
0
  6
CONTINUOUS
 10
190.0
 20
579.999405
 30
0.0
 11
140.0
 21
579.999405
 31
0.0
  0
LINE
  5
1B88
  8
0
  6
CONTINUOUS
 10
140.0
 20
579.999405
 30
0.0
 11
140.0
 21
489.999405
 31
0.0
  0
INSERT
  5
1B89
  8
0
  2
_SMALL
 10
140.0
 20
579.999405
 30
0.0
 41
4.0
 42
4.0
 43
4.0
 50
90.0
  0
TEXT
  5
1B8A
  8
0
  6
CONTINUOUS
 10
138.0
 20
530.466072
 30
0.0
 40
7.0
  1
90
 50
90.0
 41
0.8
  7
TEXT_S
  0
POINT
  5
1B8B
  8
DEFPOINTS
 62
     0
 10
190.0
 20
579.999405
 30
0.0
  0
POINT
  5
1B8C
  8
DEFPOINTS
 62
     0
 10
190.0
 20
489.999405
 30
0.0
  0
POINT
  5
1B8D
  8
DEFPOINTS
 62
     0
 10
140.0
 20
489.999405
 30
0.0
  0
ENDBLK
  5
AAA
  8
0
  0
BLOCK
  8
0
  2
*D34
 70
     1
 10
0.0
 20
0.0
 30
0.0
  3
*D34
  1

  0
LINE
  5
1AC1
  8
0
  6
CONTINUOUS
 10
190.0
 20
504.999405
 30
0.0
 11
155.0
 21
504.999405
 31
0.0
  0
LINE
  5
1AC2
  8
0
  6
CONTINUOUS
 10
190.0
 20
489.999405
 30
0.0
 11
155.0
 21
489.999405
 31
0.0
  0
LINE
  5
1AC3
  8
0
  6
CONTINUOUS
 10
155.0
 20
504.999405
 30
0.0
 11
155.0
 21
489.999405
 31
0.0
  0
INSERT
  5
1AC4
  8
0
  2
_SMALL
 10
155.0
 20
504.999405
 30
0.0
 41
4.0
 42
4.0
 43
4.0
 50
90.0
  0
INSERT
  5
1AC5
  8
0
  2
_SMALL
 10
155.0
 20
489.999405
 30
0.0
 41
4.0
 42
4.0
 43
4.0
 50
270.0
  0
TEXT
  5
1AC6
  8
0
  6
CONTINUOUS
 10
153.0
 20
493.499405
 30
0.0
 40
7.0
  1
15
 50
90.0
 41
0.8
  7
TEXT_S
  0
POINT
  5
1AC7
  8
DEFPOINTS
 62
     0
 10
190.0
 20
504.999405
 30
0.0
  0
POINT
  5
1AC8
  8
DEFPOINTS
 62
     0
 10
190.0
 20
489.999405
 30
0.0
  0
POINT
  5
1AC9
  8
DEFPOINTS
 62
     0
 10
155.0
 20
489.999405
 30
0.0
  0
ENDBLK
  5
AB4
  8
0
  0
BLOCK
  8
0
  2
*D35
 70
     1
 10
0.0
 20
0.0
 30
0.0
  3
*D35
  1

  0
LINE
  5
1ACA
  8
0
  6
CONTINUOUS
 10
190.0
 20
489.999405
 30
0.0
 11
140.0
 21
489.999405
 31
0.0
  0
LINE
  5
1ACB
  8
0
  6
CONTINUOUS
 10
140.0
 20
189.999451
 30
0.0
 11
140.0
 21
189.999451
 31
0.0
  0
LINE
  5
1ACC
  8
0
  6
CONTINUOUS
 10
140.0
 20
489.999405
 30
0.0
 11
140.0
 21
189.999451
 31
0.0
  0
TEXT
  5
1ACD
  8
0
  6
CONTINUOUS
 10
138.0
 20
338.132761
 30
0.0
 40
7.0
  1
H
 50
90.0
 41
0.8
  7
TEXT_S
  0
POINT
  5
1ACE
  8
DEFPOINTS
 62
     0
 10
190.0
 20
489.999405
 30
0.0
  0
POINT
  5
1ACF
  8
DEFPOINTS
 62
     0
 10
140.0
 20
189.999451
 30
0.0
  0
POINT
  5
1C30
  8
DEFPOINTS
 62
     0
 10
140.0
 20
189.999451
 30
0.0
  0
ENDBLK
  5
AC0
  8
0
  0
BLOCK
  8
0
  2
*D36
 70
     1
 10
0.0
 20
0.0
 30
0.0
  3
*D36
  1

  0
LINE
  5
1AD0
  8
0
  6
CONTINUOUS
 10
190.0
 20
147.999451
 30
0.0
 11
170.0
 21
147.999451
 31
0.0
  0
LINE
  5
1AD1
  8
0
  6
CONTINUOUS
 10
190.0
 20
127.999451
 30
0.0
 11
170.0
 21
127.999451
 31
0.0
  0
LINE
  5
1AD2
  8
0
  6
CONTINUOUS
 10
170.0
 20
147.999451
 30
0.0
 11
170.0
 21
127.999451
 31
0.0
  0
INSERT
  5
1AD3
  8
0
  2
_SMALL
 10
170.0
 20
147.999451
 30
0.0
 41
4.0
 42
4.0
 43
4.0
 50
90.0
  0
INSERT
  5
1AD4
  8
0
  2
_SMALL
 10
170.0
 20
127.999451
 30
0.0
 41
4.0
 42
4.0
 43
4.0
 50
270.0
  0
TEXT
  5
1AD5
  8
0
  6
CONTINUOUS
 10
168.0
 20
133.466117
 30
0.0
 40
7.0
  1
20
 50
90.0
 41
0.8
  7
TEXT_S
  0
POINT
  5
1AD6
  8
DEFPOINTS
 62
     0
 10
190.0
 20
147.999451
 30
0.0
  0
POINT
  5
1AD7
  8
DEFPOINTS
 62
     0
 10
190.0
 20
127.999451
 30
0.0
  0
POINT
  5
1AD8
  8
DEFPOINTS
 62
     0
 10
170.0
 20
127.999451
 30
0.0
  0
ENDBLK
  5
ACA
  8
0
  0
BLOCK
  8
0
  2
*D37
 70
     1
 10
0.0
 20
0.0
 30
0.0
  3
*D37
  1

  0
LINE
  5
1AD9
  8
0
  6
CONTINUOUS
 10
190.0
 20
172.999451
 30
0.0
 11
170.0
 21
172.999451
 31
0.0
  0
LINE
  5
1ADA
  8
0
  6
CONTINUOUS
 10
190.0
 20
147.999451
 30
0.0
 11
170.0
 21
147.999451
 31
0.0
  0
LINE
  5
1ADB
  8
0
  6
CONTINUOUS
 10
170.0
 20
172.999451
 30
0.0
 11
170.0
 21
147.999451
 31
0.0
  0
INSERT
  5
1ADC
  8
0
  2
_SMALL
 10
170.0
 20
172.999451
 30
0.0
 41
4.0
 42
4.0
 43
4.0
 50
90.0
  0
INSERT
  5
1ADD
  8
0
  2
_SMALL
 10
170.0
 20
147.999451
 30
0.0
 41
4.0
 42
4.0
 43
4.0
 50
270.0
  0
TEXT
  5
1ADE
  8
0
  6
CONTINUOUS
 10
168.0
 20
155.966117
 30
0.0
 40
7.0
  1
25
 50
90.0
 41
0.8
  7
TEXT_S
  0
POINT
  5
1ADF
  8
DEFPOINTS
 62
     0
 10
190.0
 20
172.999451
 30
0.0
  0
POINT
  5
1AE0
  8
DEFPOINTS
 62
     0
 10
190.0
 20
147.999451
 30
0.0
  0
POINT
  5
1AE1
  8
DEFPOINTS
 62
     0
 10
170.0
 20
147.999451
 30
0.0
  0
ENDBLK
  5
AD6
  8
0
  0
BLOCK
  8
0
  2
*D38
 70
     1
 10
0.0
 20
0.0
 30
0.0
  3
*D38
  1

  0
LINE
  5
1AE2
  8
0
  6
CONTINUOUS
 10
190.0
 20
177.999451
 30
0.0
 11
170.0
 21
177.999451
 31
0.0
  0
LINE
  5
1AE3
  8
0
  6
CONTINUOUS
 10
190.0
 20
172.999451
 30
0.0
 11
170.0
 21
172.999451
 31
0.0
  0
LINE
  5
1AE4
  8
0
  6
CONTINUOUS
 10
170.0
 20
177.999451
 30
0.0
 11
170.0
 21
172.999451
 31
0.0
  0
INSERT
  5
1AE5
  8
0
  2
_SMALL
 10
170.0
 20
177.999451
 30
0.0
 41
4.0
 42
4.0
 43
4.0
 50
90.0
  0
INSERT
  5
1AE6
  8
0
  2
_SMALL
 10
170.0
 20
172.999451
 30
0.0
 41
4.0
 42
4.0
 43
4.0
 50
270.0
  0
TEXT
  5
1AE7
  8
0
  6
CONTINUOUS
 10
168.0
 20
172.832784
 30
0.0
 40
7.0
  1
5
 50
90.0
 41
0.8
  7
TEXT_S
  0
POINT
  5
1AE8
  8
DEFPOINTS
 62
     0
 10
190.0
 20
177.999451
 30
0.0
  0
POINT
  5
1AE9
  8
DEFPOINTS
 62
     0
 10
190.0
 20
172.999451
 30
0.0
  0
POINT
  5
1AEA
  8
DEFPOINTS
 62
     0
 10
170.0
 20
172.999451
 30
0.0
  0
ENDBLK
  5
AE2
  8
0
  0
BLOCK
  8
0
  2
*D39
 70
     1
 10
0.0
 20
0.0
 30
0.0
  3
*D39
  1

  0
LINE
  5
1AED
  8
0
 10
190.0
 20
183.999451
 30
0.0
 11
170.0
 21
183.999451
 31
0.0
  0
LINE
  5
1AEE
  8
0
 10
190.0
 20
177.999451
 30
0.0
 11
170.0
 21
177.999451
 31
0.0
  0
LINE
  5
1AEF
  8
0
 10
170.0
 20
183.999451
 30
0.0
 11
170.0
 21
177.999451
 31
0.0
  0
INSERT
  5
1AF0
  8
0
  2
_SMALL
 10
170.0
 20
183.999451
 30
0.0
 41
4.0
 42
4.0
 43
4.0
 50
90.0
  0
INSERT
  5
1AF1
  8
0
  2
_SMALL
 10
170.0
 20
177.999451
 30
0.0
 41
4.0
 42
4.0
 43
4.0
 50
270.0
  0
TEXT
  5
1AF2
  8
0
  6
CONTINUOUS
 10
168.0
 20
179.866117
 30
0.0
 40
7.0
  1
6
 50
90.0
 41
0.8
  7
TEXT_S
  0
POINT
  5
1AF3
  8
DEFPOINTS
 62
     0
 10
190.0
 20
183.999451
 30
0.0
  0
POINT
  5
1AF4
  8
DEFPOINTS
 62
     0
 10
190.0
 20
177.999451
 30
0.0
  0
POINT
  5
1AF5
  8
DEFPOINTS
 62
     0
 10
170.0
 20
177.999451
 30
0.0
  0
ENDBLK
  5
AEE
  8
0
  0
BLOCK
  8
0
  2
*D40
 70
     1
 10
0.0
 20
0.0
 30
0.0
  3
*D40
  1

  0
LINE
  5
1AF8
  8
0
  6
CONTINUOUS
 10
190.0
 20
539.999405
 30
0.0
 11
155.0
 21
539.999405
 31
0.0
  0
LINE
  5
1AF9
  8
0
  6
CONTINUOUS
 10
190.0
 20
529.999405
 30
0.0
 11
155.0
 21
529.999405
 31
0.0
  0
LINE
  5
1AFA
  8
0
  6
CONTINUOUS
 10
155.0
 20
539.999405
 30
0.0
 11
155.0
 21
529.999405
 31
0.0
  0
INSERT
  5
1AFB
  8
0
  2
_SMALL
 10
155.0
 20
539.999405
 30
0.0
 41
4.0
 42
4.0
 43
4.0
 50
270.0
  0
INSERT
  5
1AFC
  8
0
  2
_SMALL
 10
155.0
 20
529.999405
 30
0.0
 41
4.0
 42
4.0
 43
4.0
 50
90.0
  0
TEXT
  5
1AFD
  8
0
  6
CONTINUOUS
 10
153.0
 20
530.999405
 30
0.0
 40
7.0
  1
10
 50
90.0
 41
0.8
  7
TEXT_S
  0
POINT
  5
1AFE
  8
DEFPOINTS
 62
     0
 10
190.0
 20
539.999405
 30
0.0
  0
POINT
  5
1AFF
  8
DEFPOINTS
 62
     0
 10
190.0
 20
529.999405
 30
0.0
  0
POINT
  5
1B00
  8
DEFPOINTS
 62
     0
 10
155.0
 20
529.999405
 30
0.0
  0
ENDBLK
  5
AFA
  8
0
  0
BLOCK
  8
0
  2
*D41
 70
     1
 10
0.0
 20
0.0
 30
0.0
  3
*D41
  1

  0
LINE
  5
1B03
  8
0
  6
CONTINUOUS
 10
190.0
 20
564.999405
 30
0.0
 11
155.0
 21
564.999405
 31
0.0
  0
LINE
  5
1B04
  8
0
  6
CONTINUOUS
 10
190.0
 20
539.999405
 30
0.0
 11
155.0
 21
539.999405
 31
0.0
  0
LINE
  5
1B05
  8
0
  6
CONTINUOUS
 10
155.0
 20
564.999405
 30
0.0
 11
155.0
 21
539.999405
 31
0.0
  0
INSERT
  5
1B06
  8
0
  2
_SMALL
 10
155.0
 20
564.999405
 30
0.0
 41
4.0
 42
4.0
 43
4.0
 50
90.0
  0
INSERT
  5
1B07
  8
0
  2
_SMALL
 10
155.0
 20
539.999405
 30
0.0
 41
4.0
 42
4.0
 43
4.0
 50
270.0
  0
TEXT
  5
1B08
  8
0
  6
CONTINUOUS
 10
153.0
 20
547.966072
 30
0.0
 40
7.0
  1
25
 50
90.0
 41
0.8
  7
TEXT_S
  0
POINT
  5
1B09
  8
DEFPOINTS
 62
     0
 10
190.0
 20
564.999405
 30
0.0
  0
POINT
  5
1B0A
  8
DEFPOINTS
 62
     0
 10
190.0
 20
539.999405
 30
0.0
  0
POINT
  5
1B0B
  8
DEFPOINTS
 62
     0
 10
155.0
 20
539.999405
 30
0.0
  0
ENDBLK
  5
B06
  8
0
  0
BLOCK
  8
0
  2
*D42
 70
     1
 10
0.0
 20
0.0
 30
0.0
  3
*D42
  1

  0
LINE
  5
1B0C
  8
0
 10
190.0
 20
504.999405
 30
0.0
 11
170.0
 21
504.999405
 31
0.0
  0
LINE
  5
1B0D
  8
0
 10
190.0
 20
500.999405
 30
0.0
 11
170.0
 21
500.999405
 31
0.0
  0
LINE
  5
1B0E
  8
0
 10
170.0
 20
504.999405
 30
0.0
 11
170.0
 21
500.999405
 31
0.0
  0
INSERT
  5
1B0F
  8
0
  2
_SMALL
 10
170.0
 20
504.999405
 30
0.0
 41
4.0
 42
4.0
 43
4.0
 50
90.0
  0
INSERT
  5
1B10
  8
0
  2
_SMALL
 10
170.0
 20
500.999405
 30
0.0
 41
4.0
 42
4.0
 43
4.0
 50
270.0
  0
TEXT
  5
1B11
  8
0
  6
CONTINUOUS
 10
168.0
 20
500.399405
 30
0.0
 40
7.0
  1
4
 50
90.0
 41
0.8
  7
TEXT_S
  0
POINT
  5
1B12
  8
DEFPOINTS
 62
     0
 10
190.0
 20
504.999405
 30
0.0
  0
POINT
  5
1B13
  8
DEFPOINTS
 62
     0
 10
190.0
 20
500.999405
 30
0.0
  0
POINT
  5
1B14
  8
DEFPOINTS
 62
     0
 10
170.0
 20
500.999405
 30
0.0
  0
ENDBLK
  5
B12
  8
0
  0
BLOCK
  8
0
  2
*D43
 70
     1
 10
0.0
 20
0.0
 30
0.0
  3
*D43
  1

  0
LINE
  5
1B17
  8
0
  6
CONTINUOUS
 10
190.0
 20
529.999405
 30
0.0
 11
155.0
 21
529.999405
 31
0.0
  0
LINE
  5
1B18
  8
0
  6
CONTINUOUS
 10
190.0
 20
504.999405
 30
0.0
 11
155.0
 21
504.999405
 31
0.0
  0
LINE
  5
1B19
  8
0
  6
CONTINUOUS
 10
155.0
 20
529.999405
 30
0.0
 11
155.0
 21
504.999405
 31
0.0
  0
INSERT
  5
1B1A
  8
0
  2
_SMALL
 10
155.0
 20
529.999405
 30
0.0
 41
4.0
 42
4.0
 43
4.0
 50
90.0
  0
INSERT
  5
1B1B
  8
0
  2
_SMALL
 10
155.0
 20
504.999405
 30
0.0
 41
4.0
 42
4.0
 43
4.0
 50
270.0
  0
TEXT
  5
1B1C
  8
0
  6
CONTINUOUS
 10
153.0
 20
512.966072
 30
0.0
 40
7.0
  1
25
 50
90.0
 41
0.8
  7
TEXT_S
  0
POINT
  5
1B1D
  8
DEFPOINTS
 62
     0
 10
190.0
 20
529.999405
 30
0.0
  0
POINT
  5
1B1E
  8
DEFPOINTS
 62
     0
 10
190.0
 20
504.999405
 30
0.0
  0
POINT
  5
1B1F
  8
DEFPOINTS
 62
     0
 10
155.0
 20
504.999405
 30
0.0
  0
ENDBLK
  5
B1E
  8
0
  0
BLOCK
  8
0
  2
*D44
 70
     1
 10
0.0
 20
0.0
 30
0.0
  3
*D44
  1

  0
LINE
  5
1B20
  8
0
 10
190.0
 20
500.999405
 30
0.0
 11
170.0
 21
500.999405
 31
0.0
  0
LINE
  5
1B21
  8
0
 10
190.0
 20
183.999451
 30
0.0
 11
170.0
 21
183.999451
 31
0.0
  0
LINE
  5
1B22
  8
0
 10
170.0
 20
500.999405
 30
0.0
 11
170.0
 21
183.999451
 31
0.0
  0
INSERT
  5
1B23
  8
0
  2
_SMALL
 10
170.0
 20
500.999405
 30
0.0
 41
4.0
 42
4.0
 43
4.0
 50
90.0
  0
INSERT
  5
1B24
  8
0
  2
_SMALL
 10
170.0
 20
183.999451
 30
0.0
 41
4.0
 42
4.0
 43
4.0
 50
270.0
  0
TEXT
  5
1B25
  8
0
  6
CONTINUOUS
 10
168.0
 20
337.832761
 30
0.0
 40
7.0
  1
DH
 50
90.0
 41
0.8
  7
TEXT_S
  0
POINT
  5
1B26
  8
DEFPOINTS
 62
     0
 10
190.0
 20
500.999405
 30
0.0
  0
POINT
  5
1B27
  8
DEFPOINTS
 62
     0
 10
190.0
 20
183.999451
 30
0.0
  0
POINT
  5
1B28
  8
DEFPOINTS
 62
     0
 10
170.0
 20
183.999451
 30
0.0
  0
ENDBLK
  5
B2A
  8
0
  0
BLOCK
  8
0
  2
*D45
 70
     1
 10
0.0
 20
0.0
 30
0.0
  3
*D45
  1

  0
LINE
  5
1B32
  8
0
 10
765.028198
 20
429.999466
 30
0.0
 11
790.028198
 21
429.999466
 31
0.0
  0
LINE
  5
1B33
  8
0
 10
765.028198
 20
377.999466
 30
0.0
 11
790.028198
 21
377.999466
 31
0.0
  0
LINE
  5
1B34
  8
0
 10
790.028198
 20
429.999466
 30
0.0
 11
790.028198
 21
377.999466
 31
0.0
  0
INSERT
  5
1B35
  8
0
  2
_SMALL
 10
790.028198
 20
429.999466
 30
0.0
 41
4.0
 42
4.0
 43
4.0
 50
90.0
  0
INSERT
  5
1B36
  8
0
  2
_SMALL
 10
790.028198
 20
377.999466
 30
0.0
 41
4.0
 42
4.0
 43
4.0
 50
270.0
  0
TEXT
  5
1B37
  8
0
  6
CONTINUOUS
 10
788.028198
 20
399.466133
 30
0.0
 40
7.0
  1
52
 50
90.0
 41
0.8
  7
TEXT_S
  0
POINT
  5
1B38
  8
DEFPOINTS
 62
     0
 10
765.028198
 20
429.999466
 30
0.0
  0
POINT
  5
1B39
  8
DEFPOINTS
 62
     0
 10
765.028198
 20
377.999466
 30
0.0
  0
POINT
  5
1B3A
  8
DEFPOINTS
 62
     0
 10
790.028198
 20
377.999466
 30
0.0
  0
ENDBLK
  5
B42
  8
0
  0
BLOCK
  8
0
  2
*D46
 70
     1
 10
0.0
 20
0.0
 30
0.0
  3
*D46
  1

  0
LINE
  5
1B3B
  8
0
 10
765.028198
 20
372.999466
 30
0.0
 11
790.028198
 21
372.999466
 31
0.0
  0
LINE
  5
1B3C
  8
0
 10
765.028198
 20
332.999466
 30
0.0
 11
790.028198
 21
332.999466
 31
0.0
  0
LINE
  5
1B3D
  8
0
 10
790.028198
 20
372.999466
 30
0.0
 11
790.028198
 21
332.999466
 31
0.0
  0
INSERT
  5
1B3E
  8
0
  2
_SMALL
 10
790.028198
 20
372.999466
 30
0.0
 41
4.0
 42
4.0
 43
4.0
 50
90.0
  0
INSERT
  5
1B3F
  8
0
  2
_SMALL
 10
790.028198
 20
332.999466
 30
0.0
 41
4.0
 42
4.0
 43
4.0
 50
270.0
  0
TEXT
  5
1B40
  8
0
  6
CONTINUOUS
 10
788.028198
 20
348.466133
 30
0.0
 40
7.0
  1
40
 50
90.0
 41
0.8
  7
TEXT_S
  0
POINT
  5
1B41
  8
DEFPOINTS
 62
     0
 10
765.028198
 20
372.999466
 30
0.0
  0
POINT
  5
1B42
  8
DEFPOINTS
 62
     0
 10
765.028198
 20
332.999466
 30
0.0
  0
POINT
  5
1B43
  8
DEFPOINTS
 62
     0
 10
790.028198
 20
332.999466
 30
0.0
  0
ENDBLK
  5
B4E
  8
0
  0
BLOCK
  8
0
  2
*D47
 70
     1
 10
0.0
 20
0.0
 30
0.0
  3
*D47
  1

  0
LINE
  5
1B44
  8
0
 10
765.028198
 20
332.999466
 30
0.0
 11
790.028198
 21
332.999466
 31
0.0
  0
LINE
  5
1B45
  8
0
 10
765.028198
 20
329.999466
 30
0.0
 11
790.028198
 21
329.999466
 31
0.0
  0
LINE
  5
1B46
  8
0
 10
790.028198
 20
332.999466
 30
0.0
 11
790.028198
 21
329.999466
 31
0.0
  0
INSERT
  5
1B47
  8
0
  2
_SMALL
 10
790.028198
 20
332.999466
 30
0.0
 41
4.0
 42
4.0
 43
4.0
 50
270.0
  0
INSERT
  5
1B48
  8
0
  2
_SMALL
 10
790.028198
 20
329.999466
 30
0.0
 41
4.0
 42
4.0
 43
4.0
 50
90.0
  0
TEXT
  5
1B49
  8
0
  6
CONTINUOUS
 10
788.028198
 20
322.232799
 30
0.0
 40
7.0
  1
3
 50
90.0
 41
0.8
  7
TEXT_S
  0
POINT
  5
1B4A
  8
DEFPOINTS
 62
     0
 10
765.028198
 20
332.999466
 30
0.0
  0
POINT
  5
1B4B
  8
DEFPOINTS
 62
     0
 10
765.028198
 20
329.999466
 30
0.0
  0
POINT
  5
1B4C
  8
DEFPOINTS
 62
     0
 10
790.028198
 20
329.999466
 30
0.0
  0
ENDBLK
  5
B5A
  8
0
  0
BLOCK
  8
0
  2
*D48
 70
     1
 10
0.0
 20
0.0
 30
0.0
  3
*D48
  1

  0
LINE
  5
1B5A
  8
0
 10
765.028198
 20
429.999466
 30
0.0
 11
805.028198
 21
429.999466
 31
0.0
  0
LINE
  5
1B5B
  8
0
 10
765.028198
 20
329.999466
 30
0.0
 11
805.028198
 21
329.999466
 31
0.0
  0
LINE
  5
1B5C
  8
0
 10
805.028198
 20
429.999466
 30
0.0
 11
805.028198
 21
329.999466
 31
0.0
  0
INSERT
  5
1B5D
  8
0
  2
_SMALL
 10
805.028198
 20
429.999466
 30
0.0
 41
4.0
 42
4.0
 43
4.0
 50
90.0
  0
INSERT
  5
1B5E
  8
0
  2
_SMALL
 10
805.028198
 20
329.999466
 30
0.0
 41
4.0
 42
4.0
 43
4.0
 50
270.0
  0
TEXT
  5
1B5F
  8
0
  6
CONTINUOUS
 10
803.028198
 20
373.332799
 30
0.0
 40
7.0
  1
100
 50
90.0
 41
0.8
  7
TEXT_S
  0
POINT
  5
1B60
  8
DEFPOINTS
 62
     0
 10
765.028198
 20
429.999466
 30
0.0
  0
POINT
  5
1B61
  8
DEFPOINTS
 62
     0
 10
765.028198
 20
329.999466
 30
0.0
  0
POINT
  5
1B62
  8
DEFPOINTS
 62
     0
 10
805.028198
 20
329.999466
 30
0.0
  0
ENDBLK
  5
B72
  8
0
  0
BLOCK
  8
0
  2
*D49
 70
     1
 10
0.0
 20
0.0
 30
0.0
  3
*D49
  1

  0
LINE
  5
1B63
  8
0
 10
765.028198
 20
377.999466
 30
0.0
 11
790.028198
 21
377.999466
 31
0.0
  0
LINE
  5
1B64
  8
0
 10
765.028198
 20
372.999466
 30
0.0
 11
790.028198
 21
372.999466
 31
0.0
  0
LINE
  5
1B65
  8
0
 10
790.028198
 20
377.999466
 30
0.0
 11
790.028198
 21
372.999466
 31
0.0
  0
INSERT
  5
1B66
  8
0
  2
_SMALL
 10
790.028198
 20
377.999466
 30
0.0
 41
4.0
 42
4.0
 43
4.0
 50
270.0
  0
INSERT
  5
1B67
  8
0
  2
_SMALL
 10
790.028198
 20
372.999466
 30
0.0
 41
4.0
 42
4.0
 43
4.0
 50
90.0
  0
TEXT
  5
1B68
  8
0
  6
CONTINUOUS
 10
788.028198
 20
373.632799
 30
0.0
 40
7.0
  1
5
 50
90.0
 41
0.8
  7
TEXT_S
  0
POINT
  5
1B69
  8
DEFPOINTS
 62
     0
 10
765.028198
 20
377.999466
 30
0.0
  0
POINT
  5
1B6A
  8
DEFPOINTS
 62
     0
 10
765.028198
 20
372.999466
 30
0.0
  0
POINT
  5
1B6B
  8
DEFPOINTS
 62
     0
 10
790.028198
 20
372.999466
 30
0.0
  0
ENDBLK
  5
B7E
  8
0
  0
BLOCK
  8
0
  2
*D50
 70
     1
 10
0.0
 20
0.0
 30
0.0
  3
*D50
  1

  0
LINE
  5
1B6E
  8
0
 10
355.0
 20
189.999451
 30
0.0
 11
385.0
 21
189.999451
 31
0.0
  0
LINE
  5
1B6F
  8
0
 10
355.0
 20
192.999451
 30
0.0
 11
385.0
 21
192.999451
 31
0.0
  0
LINE
  5
1B70
  8
0
 10
385.0
 20
189.999451
 30
0.0
 11
385.0
 21
192.999451
 31
0.0
  0
INSERT
  5
1B71
  8
0
  2
_SMALL
 10
385.0
 20
189.999451
 30
0.0
 41
4.0
 42
4.0
 43
4.0
 50
90.0
  0
INSERT
  5
1B72
  8
0
  2
_SMALL
 10
385.0
 20
192.999451
 30
0.0
 41
4.0
 42
4.0
 43
4.0
 50
270.0
  0
TEXT
  5
1B73
  8
0
  6
CONTINUOUS
 10
383.0
 20
194.632784
 30
0.0
 40
7.0
  1
3
 50
90.0
 41
0.8
  7
TEXT_S
  0
POINT
  5
1B74
  8
DEFPOINTS
 62
     0
 10
355.0
 20
189.999451
 30
0.0
  0
POINT
  5
1B75
  8
DEFPOINTS
 62
     0
 10
355.0
 20
192.999451
 30
0.0
  0
POINT
  5
1B76
  8
DEFPOINTS
 62
     0
 10
385.0
 20
192.999451
 30
0.0
  0
ENDBLK
  5
C4A
  8
0
  0
BLOCK
  8
0
  2
*D51
 70
     1
 10
0.0
 20
0.0
 30
0.0
  3
*D51
  1

  0
LINE
  5
1BCF
  8
0
  6
CONTINUOUS
 10
327.0
 20
474.939438
 30
0.0
 11
327.0
 21
450.059418
 31
0.0
  0
LINE
  5
1BD0
  8
0
  6
CONTINUOUS
 10
330.0
 20
474.939438
 30
0.0
 11
330.0
 21
450.059418
 31
0.0
  0
LINE
  5
1BD1
  8
0
  6
CONTINUOUS
 10
327.0
 20
450.059418
 30
0.0
 11
330.0
 21
450.059418
 31
0.0
  0
INSERT
  5
1BD2
  8
0
  2
_SMALL
 10
327.0
 20
450.059418
 30
0.0
 41
4.0
 42
4.0
 43
4.0
  0
INSERT
  5
1BD3
  8
0
  2
_SMALL
 10
330.0
 20
450.059418
 30
0.0
 41
4.0
 42
4.0
 43
4.0
 50
180.0
  0
TEXT
  5
1BD4
  8
0
  6
CONTINUOUS
 10
330.633333
 20
452.059418
 30
0.0
 40
7.0
  1
3
 41
0.8
  7
TEXT_S
  0
POINT
  5
1BD5
  8
DEFPOINTS
 62
     0
 10
327.0
 20
474.939438
 30
0.0
  0
POINT
  5
1BD6
  8
DEFPOINTS
 62
     0
 10
330.0
 20
474.939438
 30
0.0
  0
POINT
  5
1BD7
  8
DEFPOINTS
 62
     0
 10
330.0
 20
450.059418
 30
0.0
  0
ENDBLK
  5
1BCE
  8
0
  0
BLOCK
  8
0
  2
*D52
 70
     1
 10
0.0
 20
0.0
 30
0.0
  3
*D52
  1

  0
LINE
  5
1BDD
  8
0
  6
CONTINUOUS
 10
190.0
 20
189.999451
 30
0.0
 11
140.0
 21
189.999451
 31
0.0
  0
LINE
  5
1BDE
  8
0
  6
CONTINUOUS
 10
190.0
 20
177.999451
 30
0.0
 11
140.0
 21
177.999451
 31
0.0
  0
LINE
  5
1BDF
  8
0
  6
CONTINUOUS
 10
140.0
 20
189.999451
 30
0.0
 11
140.0
 21
177.999451
 31
0.0
  0
INSERT
  5
1BE0
  8
0
  2
_SMALL
 10
140.0
 20
189.999451
 30
0.0
 41
4.0
 42
4.0
 43
4.0
 50
270.0
  0
INSERT
  5
1BE1
  8
0
  2
_SMALL
 10
140.0
 20
177.999451
 30
0.0
 41
4.0
 42
4.0
 43
4.0
 50
90.0
  0
TEXT
  5
1BE2
  8
0
  6
CONTINUOUS
 10
138.0
 20
179.999451
 30
0.0
 40
7.0
  1
12
 50
90.0
 41
0.8
  7
TEXT_S
  0
POINT
  5
1BE3
  8
DEFPOINTS
 62
     0
 10
190.0
 20
189.999451
 30
0.0
  0
POINT
  5
1BE4
  8
DEFPOINTS
 62
     0
 10
190.0
 20
177.999451
 30
0.0
  0
POINT
  5
1BE5
  8
DEFPOINTS
 62
     0
 10
140.0
 20
177.999451
 30
0.0
  0
ENDBLK
  5
1BDC
  8
0
  0
BLOCK
  8
0
  2
*X77
 70
     1
 10
0.0
 20
0.0
 30
0.0
  3
*X77
  1

  0
LINE
  5
2A85
  8
0
  6
CONTINUOUS
 62
     0
 10
283.210404
 20
189.999451
 30
0.0
 11
286.210405
 21
192.999451
 31
0.0
  0
LINE
  5
2A86
  8
0
  6
CONTINUOUS
 62
     0
 10
289.0
 20
186.808791
 30
0.0
 11
290.5
 21
188.30879
 31
0.0
  0
LINE
  5
2A87
  8
0
  6
CONTINUOUS
 62
     0
 10
293.690662
 20
191.499451
 30
0.0
 11
295.190662
 21
192.999451
 31
0.0
  0
LINE
  5
2A88
  8
0
  6
CONTINUOUS
 62
     0
 10
302.670919
 20
191.499451
 30
0.0
 11
304.17092
 21
192.999451
 31
0.0
  0
LINE
  5
2A89
  8
0
  6
CONTINUOUS
 62
     0
 10
311.651177
 20
191.499451
 30
0.0
 11
313.151177
 21
192.999451
 31
0.0
  0
LINE
  5
2A8A
  8
0
  6
CONTINUOUS
 62
     0
 10
320.631434
 20
191.499451
 30
0.0
 11
322.131435
 21
192.999451
 31
0.0
  0
LINE
  5
2A8B
  8
0
  6
CONTINUOUS
 62
     0
 10
325.5
 20
187.387761
 30
0.0
 11
327.0
 21
188.88776
 31
0.0
  0
ENDBLK
  5
2DE7
  8
0
  0
BLOCK
  8
0
  2
*X78
 70
     1
 10
0.0
 20
0.0
 30
0.0
  3
*X78
  1

  0
LINE
  5
2A9B
  8
0
 62
     0
 10
203.0
 20
526.289097
 30
0.0
 11
204.5
 21
527.789096
 31
0.0
  0
LINE
  5
2A9C
  8
0
 62
     0
 10
203.0
 20
517.308842
 30
0.0
 11
204.5
 21
518.808842
 31
0.0
  0
LINE
  5
2A9D
  8
0
 62
     0
 10
203.0
 20
508.328588
 30
0.0
 11
204.5
 21
509.828587
 31
0.0
  0
LINE
  5
2A9E
  8
0
 62
     0
 10
205.693576
 20
528.982672
 30
0.0
 11
207.476334
 21
530.765429
 31
0.0
  0
LINE
  5
2A9F
  8
0
 62
     0
 10
216.274987
 20
530.583825
 30
0.0
 11
218.057748
 21
532.366585
 31
0.0
  0
LINE
  5
2AA0
  8
0
 62
     0
 10
226.856398
 20
532.184978
 30
0.0
 11
228.639162
 21
533.967741
 31
0.0
  0
LINE
  5
2AA1
  8
0
 62
     0
 10
237.437811
 20
533.786133
 30
0.0
 11
239.220579
 21
535.5689
 31
0.0
  0
LINE
  5
2AA2
  8
0
 62
     0
 10
268.5
 20
564.848312
 30
0.0
 11
268.651093
 21
564.999405
 31
0.0
  0
LINE
  5
2AA3
  8
0
 62
     0
 10
248.019225
 20
535.387289
 30
0.0
 11
249.801996
 21
537.170059
 31
0.0
  0
LINE
  5
2AA4
  8
0
 62
     0
 10
258.600639
 20
536.988445
 30
0.0
 11
260.383414
 21
538.771219
 31
0.0
  0
LINE
  5
2AA5
  8
0
 62
     0
 10
268.5
 20
555.868057
 30
0.0
 11
270.0
 21
557.368057
 31
0.0
  0
LINE
  5
2AA6
  8
0
 62
     0
 10
268.5
 20
546.887803
 30
0.0
 11
270.0
 21
548.387802
 31
0.0
  0
LINE
  5
2AA7
  8
0
 62
     0
 10
269.430661
 20
538.838209
 30
0.0
 11
269.650352
 21
539.0579
 31
0.0
  0
ENDBLK
  5
2DE9
  8
0
  0
BLOCK
  8
0
  2
*X79
 70
     1
 10
0.0
 20
0.0
 30
0.0
  3
*X79
  1

  0
LINE
  5
2AA9
  8
0
  6
CONTINUOUS
 62
     0
 10
227.0
 20
169.710084
 30
0.0
 11
228.5
 21
171.210083
 31
0.0
  0
LINE
  5
2AAA
  8
0
  6
CONTINUOUS
 62
     0
 10
227.0
 20
160.729829
 30
0.0
 11
228.5
 21
162.229829
 31
0.0
  0
LINE
  5
2AAB
  8
0
  6
CONTINUOUS
 62
     0
 10
227.0
 20
151.749575
 30
0.0
 11
228.5
 21
153.249574
 31
0.0
  0
LINE
  5
2AAC
  8
0
  6
CONTINUOUS
 62
     0
 10
228.927426
 20
171.637509
 30
0.0
 11
230.568553
 21
173.278636
 31
0.0
  0
LINE
  5
2AAD
  8
0
  6
CONTINUOUS
 62
     0
 10
238.719666
 20
172.449491
 30
0.0
 11
240.360794
 21
174.090618
 31
0.0
  0
LINE
  5
2AAE
  8
0
  6
CONTINUOUS
 62
     0
 10
248.511907
 20
173.261474
 30
0.0
 11
250.153034
 21
174.902601
 31
0.0
  0
LINE
  5
2AAF
  8
0
  6
CONTINUOUS
 62
     0
 10
232.230133
 20
147.999451
 30
0.0
 11
233.730133
 21
149.499451
 31
0.0
  0
LINE
  5
2AB0
  8
0
  6
CONTINUOUS
 62
     0
 10
258.304147
 20
174.073457
 30
0.0
 11
259.945275
 21
175.714584
 31
0.0
  0
LINE
  5
2AB1
  8
0
  6
CONTINUOUS
 62
     0
 10
268.096388
 20
174.88544
 30
0.0
 11
269.737516
 21
176.526567
 31
0.0
  0
LINE
  5
2AB2
  8
0
  6
CONTINUOUS
 62
     0
 10
277.888629
 20
175.697423
 30
0.0
 11
279.529756
 21
177.33855
 31
0.0
  0
LINE
  5
2AB3
  8
0
  6
CONTINUOUS
 62
     0
 10
287.5
 20
185.308791
 30
0.0
 11
289.0
 21
186.808791
 31
0.0
  0
LINE
  5
2AB4
  8
0
  6
CONTINUOUS
 62
     0
 10
287.687806
 20
176.516343
 30
0.0
 11
288.975888
 21
177.804425
 31
0.0
  0
ENDBLK
  5
2DEB
  8
0
  0
BLOCK
  8
0
  2
*X80
 70
     1
 10
0.0
 20
0.0
 30
0.0
  3
*X80
  1

  0
LINE
  5
2AB6
  8
0
 62
     0
 10
246.782332
 20
147.999451
 30
0.0
 11
248.282332
 21
149.499451
 31
0.0
  0
LINE
  5
2AB7
  8
0
 62
     0
 10
255.762589
 20
147.999451
 30
0.0
 11
257.262589
 21
149.499451
 31
0.0
  0
LINE
  5
2AB8
  8
0
 62
     0
 10
264.742846
 20
147.999451
 30
0.0
 11
266.242847
 21
149.499451
 31
0.0
  0
LINE
  5
2AB9
  8
0
 62
     0
 10
268.5
 20
142.776349
 30
0.0
 11
270.0
 21
144.276348
 31
0.0
  0
LINE
  5
2ABA
  8
0
 62
     0
 10
268.5
 20
133.796094
 30
0.0
 11
270.0
 21
135.296094
 31
0.0
  0
ENDBLK
  5
2DED
  8
0
  0
BLOCK
  8
0
  2
*X81
 70
     1
 10
0.0
 20
0.0
 30
0.0
  3
*X81
  1

  0
LINE
  5
2ACD
  8
0
 62
     0
 10
233.0
 20
529.348323
 30
0.0
 11
234.5
 21
530.848323
 31
0.0
  0
LINE
  5
2ACE
  8
0
 62
     0
 10
235.654953
 20
532.003276
 30
0.0
 11
237.437524
 21
533.785846
 31
0.0
  0
LINE
  5
2ACF
  8
0
 62
     0
 10
233.0
 20
520.368069
 30
0.0
 11
234.5
 21
521.868068
 31
0.0
  0
LINE
  5
2AD0
  8
0
 62
     0
 10
246.235425
 20
533.60349
 30
0.0
 11
248.018
 21
535.386064
 31
0.0
  0
LINE
  5
2AD1
  8
0
 62
     0
 10
270.0
 20
557.368057
 30
0.0
 11
271.5
 21
558.868056
 31
0.0
  0
LINE
  5
2AD2
  8
0
 62
     0
 10
233.0
 20
511.387814
 30
0.0
 11
234.5
 21
512.887814
 31
0.0
  0
LINE
  5
2AD3
  8
0
 62
     0
 10
256.815898
 20
535.203704
 30
0.0
 11
258.598476
 21
536.986282
 31
0.0
  0
LINE
  5
2AD4
  8
0
 62
     0
 10
270.0
 20
548.387802
 30
0.0
 11
271.5
 21
549.887802
 31
0.0
  0
LINE
  5
2AD5
  8
0
 62
     0
 10
235.591846
 20
504.999405
 30
0.0
 11
237.091847
 21
506.499405
 31
0.0
  0
LINE
  5
2AD6
  8
0
 62
     0
 10
267.725862
 20
537.133411
 30
0.0
 11
269.178953
 21
538.586501
 31
0.0
  0
LINE
  5
2AD7
  8
0
 62
     0
 10
270.0
 20
539.407548
 30
0.0
 11
271.5
 21
540.907547
 31
0.0
  0
LINE
  5
2AD8
  8
0
 62
     0
 10
244.572103
 20
504.999405
 30
0.0
 11
246.072104
 21
506.499405
 31
0.0
  0
LINE
  5
2AD9
  8
0
 62
     0
 10
253.552361
 20
504.999405
 30
0.0
 11
255.052361
 21
506.499405
 31
0.0
  0
LINE
  5
2ADA
  8
0
 62
     0
 10
262.532618
 20
504.999405
 30
0.0
 11
264.032619
 21
506.499405
 31
0.0
  0
LINE
  5
2ADB
  8
0
 62
     0
 10
271.512876
 20
504.999405
 30
0.0
 11
273.012876
 21
506.499405
 31
0.0
  0
LINE
  5
2ADC
  8
0
 62
     0
 10
280.493133
 20
504.999405
 30
0.0
 11
281.993134
 21
506.499405
 31
0.0
  0
LINE
  5
2ADD
  8
0
 62
     0
 10
289.0
 20
504.526014
 30
0.0
 11
290.266194
 21
505.792208
 31
0.0
  0
ENDBLK
  5
2DEF
  8
0
  0
BLOCK
  8
0
  2
*X82
 70
     1
 10
0.0
 20
0.0
 30
0.0
  3
*X82
  1

  0
LINE
  5
2AE7
  8
0
 62
     0
 10
269.01713
 20
562.805252
 30
0.0
 11
270.0
 21
563.788122
 31
0.0
  0
ENDBLK
  5
2DF1
  8
0
  0
BLOCK
  8
0
  2
*X83
 70
     1
 10
0.0
 20
0.0
 30
0.0
  3
*X83
  1

  0
LINE
  5
2B05
  8
0
 62
     0
 10
280.842258
 20
489.999405
 30
0.0
 11
283.842259
 21
492.999405
 31
0.0
  0
LINE
  5
2B06
  8
0
 62
     0
 10
319.342271
 20
528.499405
 30
0.0
 11
320.842271
 21
529.999405
 31
0.0
  0
LINE
  5
2B07
  8
0
 62
     0
 10
289.822516
 20
489.999405
 30
0.0
 11
291.322516
 21
491.499405
 31
0.0
  0
LINE
  5
2B08
  8
0
 62
     0
 10
298.802773
 20
489.999405
 30
0.0
 11
300.302773
 21
491.499405
 31
0.0
  0
LINE
  5
2B09
  8
0
 62
     0
 10
307.78303
 20
489.999405
 30
0.0
 11
309.283031
 21
491.499405
 31
0.0
  0
LINE
  5
2B0A
  8
0
 62
     0
 10
316.763288
 20
489.999405
 30
0.0
 11
318.263288
 21
491.499405
 31
0.0
  0
LINE
  5
2B0B
  8
0
 62
     0
 10
325.5
 20
525.676878
 30
0.0
 11
327.0
 21
527.176877
 31
0.0
  0
LINE
  5
2B0C
  8
0
 62
     0
 10
325.5
 20
516.696623
 30
0.0
 11
327.0
 21
518.196623
 31
0.0
  0
LINE
  5
2B0D
  8
0
 62
     0
 10
325.5
 20
507.716369
 30
0.0
 11
327.0
 21
509.216368
 31
0.0
  0
LINE
  5
2B0E
  8
0
 62
     0
 10
325.5
 20
498.736114
 30
0.0
 11
327.0
 21
500.236114
 31
0.0
  0
LINE
  5
2B0F
  8
0
 62
     0
 10
325.78047
 20
490.036329
 30
0.0
 11
326.963076
 21
491.218935
 31
0.0
  0
ENDBLK
  5
2DF3
  8
0
  0
BLOCK
  8
0
  2
*X84
 70
     1
 10
0.0
 20
0.0
 30
0.0
  3
*X84
  1

  0
LINE
  5
2B43
  8
0
 62
     0
 10
233.0
 20
497.995522
 30
0.0
 11
234.5
 21
499.495521
 31
0.0
  0
LINE
  5
2B44
  8
0
 62
     0
 10
233.0
 20
489.015267
 30
0.0
 11
234.5
 21
490.515267
 31
0.0
  0
LINE
  5
2B45
  8
0
 62
     0
 10
234.503884
 20
499.499405
 30
0.0
 11
236.003884
 21
500.999405
 31
0.0
  0
LINE
  5
2B46
  8
0
 62
     0
 10
243.484141
 20
499.499405
 30
0.0
 11
244.984142
 21
500.999405
 31
0.0
  0
LINE
  5
2B47
  8
0
 62
     0
 10
233.0
 20
480.035012
 30
0.0
 11
234.5
 21
481.535012
 31
0.0
  0
LINE
  5
2B48
  8
0
 62
     0
 10
252.464399
 20
499.499405
 30
0.0
 11
253.0
 21
500.035006
 31
0.0
  0
LINE
  5
2B49
  8
0
 62
     0
 10
233.0
 20
471.054758
 30
0.0
 11
234.5
 21
472.554757
 31
0.0
  0
LINE
  5
2B4A
  8
0
 62
     0
 10
233.0
 20
462.074503
 30
0.0
 11
234.5
 21
463.574503
 31
0.0
  0
LINE
  5
2B4B
  8
0
 62
     0
 10
233.0
 20
453.094249
 30
0.0
 11
234.5
 21
454.594248
 31
0.0
  0
LINE
  5
2B4C
  8
0
 62
     0
 10
233.0
 20
444.113994
 30
0.0
 11
234.5
 21
445.613994
 31
0.0
  0
LINE
  5
2B4D
  8
0
 62
     0
 10
233.0
 20
435.13374
 30
0.0
 11
234.5
 21
436.633739
 31
0.0
  0
LINE
  5
2B4E
  8
0
 62
     0
 10
233.0
 20
426.153485
 30
0.0
 11
234.5
 21
427.653485
 31
0.0
  0
LINE
  5
2B4F
  8
0
 62
     0
 10
233.0
 20
417.173231
 30
0.0
 11
234.5
 21
418.67323
 31
0.0
  0
LINE
  5
2B50
  8
0
 62
     0
 10
233.0
 20
408.192976
 30
0.0
 11
234.5
 21
409.692976
 31
0.0
  0
LINE
  5
2B51
  8
0
 62
     0
 10
233.0
 20
399.212722
 30
0.0
 11
234.5
 21
400.712721
 31
0.0
  0
LINE
  5
2B52
  8
0
 62
     0
 10
233.0
 20
390.232467
 30
0.0
 11
234.5
 21
391.732467
 31
0.0
  0
LINE
  5
2B53
  8
0
 62
     0
 10
233.0
 20
381.252213
 30
0.0
 11
234.5
 21
382.752212
 31
0.0
  0
LINE
  5
2B54
  8
0
 62
     0
 10
233.0
 20
372.271958
 30
0.0
 11
234.5
 21
373.771958
 31
0.0
  0
LINE
  5
2B55
  8
0
 62
     0
 10
233.0
 20
363.291704
 30
0.0
 11
234.5
 21
364.791703
 31
0.0
  0
LINE
  5
2B56
  8
0
 62
     0
 10
233.0
 20
354.311449
 30
0.0
 11
234.5
 21
355.811449
 31
0.0
  0
LINE
  5
2B57
  8
0
 62
     0
 10
233.0
 20
345.331194
 30
0.0
 11
234.5
 21
346.831194
 31
0.0
  0
ENDBLK
  5
2DF5
  8
0
  0
BLOCK
  8
0
  2
*X85
 70
     1
 10
0.0
 20
0.0
 30
0.0
  3
*X85
  1

  0
LINE
  5
2B60
  8
0
 62
     0
 10
233.0
 20
328.3312
 30
0.0
 11
234.5
 21
329.8312
 31
0.0
  0
LINE
  5
2B61
  8
0
 62
     0
 10
233.0
 20
319.350946
 30
0.0
 11
234.5
 21
320.850945
 31
0.0
  0
LINE
  5
2B62
  8
0
 62
     0
 10
233.0
 20
310.370691
 30
0.0
 11
234.5
 21
311.87069
 31
0.0
  0
LINE
  5
2B63
  8
0
 62
     0
 10
233.0
 20
301.390436
 30
0.0
 11
234.5
 21
302.890436
 31
0.0
  0
LINE
  5
2B64
  8
0
 62
     0
 10
233.0
 20
292.410182
 30
0.0
 11
234.5
 21
293.910181
 31
0.0
  0
LINE
  5
2B65
  8
0
 62
     0
 10
233.0
 20
283.429927
 30
0.0
 11
234.5
 21
284.929927
 31
0.0
  0
LINE
  5
2B66
  8
0
 62
     0
 10
233.0
 20
274.449673
 30
0.0
 11
234.5
 21
275.949672
 31
0.0
  0
LINE
  5
2B67
  8
0
 62
     0
 10
233.0
 20
265.469418
 30
0.0
 11
234.5
 21
266.969418
 31
0.0
  0
LINE
  5
2B68
  8
0
 62
     0
 10
233.0
 20
256.489164
 30
0.0
 11
234.5
 21
257.989163
 31
0.0
  0
LINE
  5
2B69
  8
0
 62
     0
 10
233.0
 20
238.528655
 30
0.0
 11
234.443422
 21
239.972076
 31
0.0
  0
LINE
  5
2B6A
  8
0
 62
     0
 10
233.0
 20
229.5484
 30
0.0
 11
234.5
 21
231.0484
 31
0.0
  0
LINE
  5
2B6B
  8
0
 62
     0
 10
233.0
 20
220.568146
 30
0.0
 11
234.5
 21
222.068145
 31
0.0
  0
LINE
  5
2B6C
  8
0
 62
     0
 10
233.0
 20
211.587891
 30
0.0
 11
234.5
 21
213.087891
 31
0.0
  0
LINE
  5
2B6D
  8
0
 62
     0
 10
233.0
 20
202.607637
 30
0.0
 11
234.5
 21
204.107636
 31
0.0
  0
LINE
  5
2B6E
  8
0
 62
     0
 10
233.0
 20
193.627382
 30
0.0
 11
234.5
 21
195.127382
 31
0.0
  0
LINE
  5
2B6F
  8
0
 62
     0
 10
233.172071
 20
184.819199
 30
0.0
 11
234.5
 21
186.147127
 31
0.0
  0
LINE
  5
2B70
  8
0
 62
     0
 10
241.332581
 20
183.999451
 30
0.0
 11
242.832581
 21
185.499451
 31
0.0
  0
LINE
  5
2B71
  8
0
 62
     0
 10
250.312838
 20
183.999451
 30
0.0
 11
251.812839
 21
185.499451
 31
0.0
  0
ENDBLK
  5
2DF7
  8
0
  0
BLOCK
  8
0
  2
*X86
 70
     1
 10
0.0
 20
0.0
 30
0.0
  3
*X86
  1

  0
LINE
  5
2B86
  8
0
  6
CONTINUOUS
 62
     0
 10
840.394308
 20
371.499451
 30
0.0
 11
841.894309
 21
372.999451
 31
0.0
  0
LINE
  5
2B87
  8
0
  6
CONTINUOUS
 62
     0
 10
849.374566
 20
371.499451
 30
0.0
 11
850.874566
 21
372.999451
 31
0.0
  0
LINE
  5
2B88
  8
0
  6
CONTINUOUS
 62
     0
 10
858.354823
 20
371.499451
 30
0.0
 11
859.854823
 21
372.999451
 31
0.0
  0
LINE
  5
2B89
  8
0
  6
CONTINUOUS
 62
     0
 10
867.33508
 20
371.499451
 30
0.0
 11
868.835081
 21
372.999451
 31
0.0
  0
LINE
  5
2B8A
  8
0
  6
CONTINUOUS
 62
     0
 10
876.315338
 20
371.499451
 30
0.0
 11
877.815338
 21
372.999451
 31
0.0
  0
LINE
  5
2B8B
  8
0
  6
CONTINUOUS
 62
     0
 10
885.295595
 20
371.499451
 30
0.0
 11
886.0
 21
372.203855
 31
0.0
  0
ENDBLK
  5
2DF9
  8
0
  0
BLOCK
  8
0
  2
*X87
 70
     1
 10
0.0
 20
0.0
 30
0.0
  3
*X87
  1

  0
LINE
  5
2B8F
  8
0
  6
CONTINUOUS
 62
     0
 10
836.79558
 20
332.999451
 30
0.0
 11
838.29558
 21
334.499451
 31
0.0
  0
LINE
  5
2B90
  8
0
  6
CONTINUOUS
 62
     0
 10
845.775837
 20
332.999451
 30
0.0
 11
847.275838
 21
334.499451
 31
0.0
  0
LINE
  5
2B91
  8
0
  6
CONTINUOUS
 62
     0
 10
854.756094
 20
332.999451
 30
0.0
 11
856.256095
 21
334.499451
 31
0.0
  0
LINE
  5
2B92
  8
0
  6
CONTINUOUS
 62
     0
 10
863.736352
 20
332.999451
 30
0.0
 11
865.236352
 21
334.499451
 31
0.0
  0
LINE
  5
2B93
  8
0
  6
CONTINUOUS
 62
     0
 10
872.716609
 20
332.999451
 30
0.0
 11
874.21661
 21
334.499451
 31
0.0
  0
LINE
  5
2B94
  8
0
  6
CONTINUOUS
 62
     0
 10
881.696867
 20
332.999451
 30
0.0
 11
883.196867
 21
334.499451
 31
0.0
  0
ENDBLK
  5
2DFB
  8
0
  0
BLOCK
  8
0
  2
*X88
 70
     1
 10
0.0
 20
0.0
 30
0.0
  3
*X88
  1

  0
LINE
  5
2B9F
  8
0
  6
CONTINUOUS
 62
     0
 10
895.677124
 20
332.999451
 30
0.0
 11
897.177125
 21
334.499451
 31
0.0
  0
LINE
  5
2BA0
  8
0
  6
CONTINUOUS
 62
     0
 10
904.657382
 20
332.999451
 30
0.0
 11
906.157382
 21
334.499451
 31
0.0
  0
LINE
  5
2BA1
  8
0
  6
CONTINUOUS
 62
     0
 10
913.637639
 20
332.999451
 30
0.0
 11
915.13764
 21
334.499451
 31
0.0
  0
LINE
  5
2BA2
  8
0
  6
CONTINUOUS
 62
     0
 10
922.617897
 20
332.999451
 30
0.0
 11
924.117897
 21
334.499451
 31
0.0
  0
LINE
  5
2BA3
  8
0
  6
CONTINUOUS
 62
     0
 10
931.598154
 20
332.999451
 30
0.0
 11
933.098155
 21
334.499451
 31
0.0
  0
LINE
  5
2BA4
  8
0
  6
CONTINUOUS
 62
     0
 10
940.578412
 20
332.999451
 30
0.0
 11
942.078412
 21
334.499451
 31
0.0
  0
LINE
  5
2BA5
  8
0
  6
CONTINUOUS
 62
     0
 10
949.558669
 20
332.999451
 30
0.0
 11
951.05867
 21
334.499451
 31
0.0
  0
LINE
  5
2BA6
  8
0
  6
CONTINUOUS
 62
     0
 10
968.5
 20
351.940776
 30
0.0
 11
969.558676
 21
352.999451
 31
0.0
  0
LINE
  5
2BA7
  8
0
  6
CONTINUOUS
 62
     0
 10
958.538927
 20
332.999451
 30
0.0
 11
960.038927
 21
334.499451
 31
0.0
  0
LINE
  5
2BA8
  8
0
  6
CONTINUOUS
 62
     0
 10
968.5
 20
342.960521
 30
0.0
 11
970.0
 21
344.460521
 31
0.0
  0
LINE
  5
2BA9
  8
0
  6
CONTINUOUS
 62
     0
 10
967.519184
 20
332.999451
 30
0.0
 11
970.0
 21
335.480266
 31
0.0
  0
ENDBLK
  5
2DFD
  8
0
  0
BLOCK
  8
0
  2
*X89
 70
     1
 10
0.0
 20
0.0
 30
0.0
  3
*X89
  1

  0
LINE
  5
2BB3
  8
0
  6
CONTINUOUS
 62
     0
 10
891.0
 20
372.006206
 30
0.0
 11
891.993245
 21
372.999451
 31
0.0
  0
LINE
  5
2BB4
  8
0
  6
CONTINUOUS
 62
     0
 10
899.473502
 20
371.499451
 30
0.0
 11
900.973503
 21
372.999451
 31
0.0
  0
LINE
  5
2BB5
  8
0
  6
CONTINUOUS
 62
     0
 10
908.45376
 20
371.499451
 30
0.0
 11
909.95376
 21
372.999451
 31
0.0
  0
LINE
  5
2BB6
  8
0
  6
CONTINUOUS
 62
     0
 10
917.434017
 20
371.499451
 30
0.0
 11
918.934018
 21
372.999451
 31
0.0
  0
LINE
  5
2BB7
  8
0
  6
CONTINUOUS
 62
     0
 10
926.414275
 20
371.499451
 30
0.0
 11
927.914275
 21
372.999451
 31
0.0
  0
LINE
  5
2BB8
  8
0
  6
CONTINUOUS
 62
     0
 10
935.394532
 20
371.499451
 30
0.0
 11
936.894533
 21
372.999451
 31
0.0
  0
LINE
  5
2BB9
  8
0
  6
CONTINUOUS
 62
     0
 10
944.37479
 20
371.499451
 30
0.0
 11
945.87479
 21
372.999451
 31
0.0
  0
LINE
  5
2BBA
  8
0
  6
CONTINUOUS
 62
     0
 10
953.355047
 20
371.499451
 30
0.0
 11
954.855047
 21
372.999451
 31
0.0
  0
LINE
  5
2BBB
  8
0
  6
CONTINUOUS
 62
     0
 10
962.335304
 20
371.499451
 30
0.0
 11
963.835305
 21
372.999451
 31
0.0
  0
LINE
  5
2BBC
  8
0
  6
CONTINUOUS
 62
     0
 10
968.5
 20
368.68389
 30
0.0
 11
970.0
 21
370.18389
 31
0.0
  0
LINE
  5
2BBD
  8
0
  6
CONTINUOUS
 62
     0
 10
968.5
 20
359.703635
 30
0.0
 11
970.0
 21
361.203635
 31
0.0
  0
ENDBLK
  5
2DFF
  8
0
  0
BLOCK
  8
0
  2
*X90
 70
     1
 10
0.0
 20
0.0
 30
0.0
  3
*X90
  1

  0
LINE
  5
2BC7
  8
0
 62
     0
 10
750.0
 20
366.650842
 30
0.0
 11
751.5
 21
368.150842
 31
0.0
  0
LINE
  5
2BC8
  8
0
 62
     0
 10
750.0
 20
357.670588
 30
0.0
 11
751.5
 21
359.170587
 31
0.0
  0
LINE
  5
2BC9
  8
0
 62
     0
 10
754.84861
 20
371.499451
 30
0.0
 11
756.348595
 21
372.999435
 31
0.0
  0
LINE
  5
2BCA
  8
0
 62
     0
 10
763.828868
 20
371.499451
 30
0.0
 11
765.328852
 21
372.999435
 31
0.0
  0
LINE
  5
2BCB
  8
0
 62
     0
 10
750.0
 20
348.690333
 30
0.0
 11
751.5
 21
350.190333
 31
0.0
  0
LINE
  5
2BCC
  8
0
 62
     0
 10
750.0
 20
339.710079
 30
0.0
 11
751.5
 21
341.210078
 31
0.0
  0
LINE
  5
2BCD
  8
0
 62
     0
 10
772.809125
 20
371.499451
 30
0.0
 11
774.30911
 21
372.999435
 31
0.0
  0
LINE
  5
2BCE
  8
0
 62
     0
 10
781.789383
 20
371.499451
 30
0.0
 11
783.289367
 21
372.999435
 31
0.0
  0
LINE
  5
2BCF
  8
0
 62
     0
 10
752.269612
 20
332.999435
 30
0.0
 11
753.769628
 21
334.499451
 31
0.0
  0
LINE
  5
2BD0
  8
0
 62
     0
 10
761.249869
 20
332.999435
 30
0.0
 11
762.749886
 21
334.499451
 31
0.0
  0
LINE
  5
2BD1
  8
0
 62
     0
 10
770.230127
 20
332.999435
 30
0.0
 11
771.730143
 21
334.499451
 31
0.0
  0
LINE
  5
2BD2
  8
0
 62
     0
 10
779.210384
 20
332.999435
 30
0.0
 11
780.7104
 21
334.499451
 31
0.0
  0
LINE
  5
2BD3
  8
0
 62
     0
 10
790.76964
 20
371.499451
 30
0.0
 11
792.269625
 21
372.999435
 31
0.0
  0
LINE
  5
2BD4
  8
0
 62
     0
 10
799.749898
 20
371.499451
 30
0.0
 11
801.249882
 21
372.999435
 31
0.0
  0
LINE
  5
2BD5
  8
0
 62
     0
 10
808.730155
 20
371.499451
 30
0.0
 11
810.23014
 21
372.999435
 31
0.0
  0
LINE
  5
2BD6
  8
0
 62
     0
 10
817.710413
 20
371.499451
 30
0.0
 11
819.210397
 21
372.999435
 31
0.0
  0
LINE
  5
2BD7
  8
0
 62
     0
 10
826.69067
 20
371.499451
 30
0.0
 11
828.190655
 21
372.999435
 31
0.0
  0
LINE
  5
2BD8
  8
0
 62
     0
 10
797.170899
 20
332.999435
 30
0.0
 11
798.670915
 21
334.499451
 31
0.0
  0
LINE
  5
2BD9
  8
0
 62
     0
 10
806.151156
 20
332.999435
 30
0.0
 11
807.651173
 21
334.499451
 31
0.0
  0
LINE
  5
2BDA
  8
0
 62
     0
 10
815.131414
 20
332.999435
 30
0.0
 11
816.63143
 21
334.499451
 31
0.0
  0
LINE
  5
2BDB
  8
0
 62
     0
 10
824.111671
 20
332.999435
 30
0.0
 11
825.611688
 21
334.499451
 31
0.0
  0
ENDBLK
  5
2E01
  8
0
  0
BLOCK
  8
0
  2
*X91
 70
     1
 10
0.0
 20
0.0
 30
0.0
  3
*X91
  1

  0
LINE
  5
2BDD
  8
0
  6
CONTINUOUS
 62
     0
 10
960.0
 20
421.572716
 30
0.0
 11
961.5
 21
423.072715
 31
0.0
  0
LINE
  5
2BDE
  8
0
  6
CONTINUOUS
 62
     0
 10
960.0
 20
412.592461
 30
0.0
 11
961.5
 21
414.092461
 31
0.0
  0
LINE
  5
2BDF
  8
0
  6
CONTINUOUS
 62
     0
 10
960.0
 20
403.612207
 30
0.0
 11
961.5
 21
405.112206
 31
0.0
  0
LINE
  5
2BE0
  8
0
  6
CONTINUOUS
 62
     0
 10
960.0
 20
394.631952
 30
0.0
 11
961.5
 21
396.131952
 31
0.0
  0
LINE
  5
2BE1
  8
0
  6
CONTINUOUS
 62
     0
 10
966.926737
 20
428.499451
 30
0.0
 11
968.426738
 21
429.999451
 31
0.0
  0
LINE
  5
2BE2
  8
0
  6
CONTINUOUS
 62
     0
 10
975.906995
 20
428.499451
 30
0.0
 11
977.406995
 21
429.999451
 31
0.0
  0
LINE
  5
2BE3
  8
0
  6
CONTINUOUS
 62
     0
 10
984.887252
 20
428.499451
 30
0.0
 11
986.387253
 21
429.999451
 31
0.0
  0
LINE
  5
2BE4
  8
0
  6
CONTINUOUS
 62
     0
 10
993.86751
 20
428.499451
 30
0.0
 11
995.36751
 21
429.999451
 31
0.0
  0
LINE
  5
2BE5
  8
0
  6
CONTINUOUS
 62
     0
 10
960.0
 20
385.651698
 30
0.0
 11
963.0
 21
388.651697
 31
0.0
  0
LINE
  5
2BE6
  8
0
  6
CONTINUOUS
 62
     0
 10
964.847755
 20
390.499451
 30
0.0
 11
966.347755
 21
391.999451
 31
0.0
  0
LINE
  5
2BE7
  8
0
  6
CONTINUOUS
 62
     0
 10
998.5
 20
424.151685
 30
0.0
 11
1000.0
 21
425.651685
 31
0.0
  0
LINE
  5
2BE8
  8
0
  6
CONTINUOUS
 62
     0
 10
961.348017
 20
378.01946
 30
0.0
 11
963.0
 21
379.671442
 31
0.0
  0
ENDBLK
  5
2E03
  8
0
  0
BLOCK
  8
0
  2
*X92
 70
     1
 10
0.0
 20
0.0
 30
0.0
  3
*X92
  1

  0
LINE
  5
2BFC
  8
0
  6
CONTINUOUS
 62
     0
 10
971.814879
 20
389.506064
 30
0.0
 11
972.808266
 21
390.499451
 31
0.0
  0
LINE
  5
2BFD
  8
0
  6
CONTINUOUS
 62
     0
 10
975.0
 20
383.710929
 30
0.0
 11
976.5
 21
385.210929
 31
0.0
  0
LINE
  5
2BFE
  8
0
  6
CONTINUOUS
 62
     0
 10
975.0
 20
374.730675
 30
0.0
 11
976.5
 21
376.230674
 31
0.0
  0
LINE
  5
2BFF
  8
0
  6
CONTINUOUS
 62
     0
 10
975.0
 20
365.75042
 30
0.0
 11
976.5
 21
367.25042
 31
0.0
  0
LINE
  5
2C00
  8
0
  6
CONTINUOUS
 62
     0
 10
975.0
 20
356.770166
 30
0.0
 11
976.5
 21
358.270165
 31
0.0
  0
LINE
  5
2C01
  8
0
  6
CONTINUOUS
 62
     0
 10
975.0
 20
347.789911
 30
0.0
 11
976.5
 21
349.289911
 31
0.0
  0
LINE
  5
2C02
  8
0
  6
CONTINUOUS
 62
     0
 10
975.0
 20
338.809657
 30
0.0
 11
976.5
 21
340.309656
 31
0.0
  0
LINE
  5
2C03
  8
0
  6
CONTINUOUS
 62
     0
 10
975.535558
 20
330.36496
 30
0.0
 11
976.670049
 21
331.499451
 31
0.0
  0
LINE
  5
2C04
  8
0
  6
CONTINUOUS
 62
     0
 10
984.150306
 20
329.999451
 30
0.0
 11
985.650307
 21
331.499451
 31
0.0
  0
LINE
  5
2C05
  8
0
  6
CONTINUOUS
 62
     0
 10
998.5
 20
344.34914
 30
0.0
 11
999.150311
 21
344.99945
 31
0.0
  0
LINE
  5
2C06
  8
0
  6
CONTINUOUS
 62
     0
 10
993.130564
 20
329.999451
 30
0.0
 11
994.630564
 21
331.499451
 31
0.0
  0
LINE
  5
2C07
  8
0
  6
CONTINUOUS
 62
     0
 10
998.5
 20
335.368885
 30
0.0
 11
1000.0
 21
336.868885
 31
0.0
  0
ENDBLK
  5
2E05
  8
0
  0
BLOCK
  8
0
  2
*X93
 70
     1
 10
0.0
 20
0.0
 30
0.0
  3
*X93
  1

  0
LINE
  5
2C16
  8
0
 62
     0
 10
720.0
 20
426.453397
 30
0.0
 11
721.5
 21
427.953397
 31
0.0
  0
LINE
  5
2C17
  8
0
 62
     0
 10
722.046054
 20
428.499451
 30
0.0
 11
723.546055
 21
429.999451
 31
0.0
  0
LINE
  5
2C18
  8
0
 62
     0
 10
731.026312
 20
428.499451
 30
0.0
 11
732.526312
 21
429.999451
 31
0.0
  0
LINE
  5
2C19
  8
0
 62
     0
 10
740.006569
 20
428.499451
 30
0.0
 11
741.50657
 21
429.999451
 31
0.0
  0
LINE
  5
2C1A
  8
0
 62
     0
 10
748.986827
 20
428.499451
 30
0.0
 11
750.486827
 21
429.999451
 31
0.0
  0
LINE
  5
2C1B
  8
0
 62
     0
 10
757.967084
 20
428.499451
 30
0.0
 11
759.259123
 21
429.791489
 31
0.0
  0
LINE
  5
2C1C
  8
0
 62
     0
 10
758.5
 20
420.052112
 30
0.0
 11
760.0
 21
421.552112
 31
0.0
  0
LINE
  5
2C1D
  8
0
 62
     0
 10
758.5
 20
411.071858
 30
0.0
 11
760.0
 21
412.571857
 31
0.0
  0
LINE
  5
2C1E
  8
0
 62
     0
 10
746.907844
 20
390.499451
 30
0.0
 11
748.407845
 21
391.999451
 31
0.0
  0
LINE
  5
2C1F
  8
0
 62
     0
 10
758.5
 20
402.091603
 30
0.0
 11
760.0
 21
403.591603
 31
0.0
  0
LINE
  5
2C20
  8
0
 62
     0
 10
755.888102
 20
390.499451
 30
0.0
 11
757.342952
 21
391.954301
 31
0.0
  0
LINE
  5
2C21
  8
0
 62
     0
 10
758.5
 20
393.111349
 30
0.0
 11
760.0
 21
394.611348
 31
0.0
  0
LINE
  5
2C22
  8
0
 62
     0
 10
757.0
 20
382.631095
 30
0.0
 11
760.0
 21
385.631094
 31
0.0
  0
ENDBLK
  5
2E07
  8
0
  0
BLOCK
  8
0
  2
*X94
 70
     1
 10
0.0
 20
0.0
 30
0.0
  3
*X94
  1

  0
LINE
  5
2C36
  8
0
 62
     0
 10
743.5
 20
387.091608
 30
0.0
 11
745.0
 21
388.591608
 31
0.0
  0
LINE
  5
2C37
  8
0
 62
     0
 10
745.407844
 20
388.999451
 30
0.0
 11
746.907844
 21
390.499451
 31
0.0
  0
LINE
  5
2C38
  8
0
 62
     0
 10
743.5
 20
378.111353
 30
0.0
 11
745.0
 21
379.611353
 31
0.0
  0
LINE
  5
2C39
  8
0
 62
     0
 10
743.5
 20
369.131099
 30
0.0
 11
745.0
 21
370.631098
 31
0.0
  0
LINE
  5
2C3A
  8
0
 62
     0
 10
743.5
 20
360.150844
 30
0.0
 11
745.0
 21
361.650844
 31
0.0
  0
LINE
  5
2C3B
  8
0
 62
     0
 10
722.328854
 20
329.999451
 30
0.0
 11
723.828855
 21
331.499451
 31
0.0
  0
LINE
  5
2C3C
  8
0
 62
     0
 10
731.309112
 20
329.999451
 30
0.0
 11
732.809112
 21
331.499451
 31
0.0
  0
LINE
  5
2C3D
  8
0
 62
     0
 10
740.289369
 20
329.999451
 30
0.0
 11
741.78937
 21
331.499451
 31
0.0
  0
LINE
  5
2C3E
  8
0
 62
     0
 10
743.5
 20
351.17059
 30
0.0
 11
745.0
 21
352.670589
 31
0.0
  0
LINE
  5
2C3F
  8
0
 62
     0
 10
743.5
 20
342.190335
 30
0.0
 11
745.0
 21
343.690335
 31
0.0
  0
LINE
  5
2C40
  8
0
 62
     0
 10
743.5
 20
333.210081
 30
0.0
 11
745.0
 21
334.71008
 31
0.0
  0
ENDBLK
  5
2E09
  8
0
  0
BLOCK
  8
0
  2
*X95
 70
     1
 10
0.0
 20
0.0
 30
0.0
  3
*X95
  1

  0
LINE
  5
2D02
  8
0
 62
     0
 10
271.5
 20
330.910169
 30
0.0
 11
272.987137
 21
332.397306
 31
0.0
  0
LINE
  5
2D03
  8
0
 62
     0
 10
271.5
 20
321.929915
 30
0.0
 11
272.987137
 21
323.417051
 31
0.0
  0
LINE
  5
2D04
  8
0
 62
     0
 10
271.5
 20
312.94966
 30
0.0
 11
272.987137
 21
314.436797
 31
0.0
  0
LINE
  5
2D05
  8
0
 62
     0
 10
271.5
 20
303.969406
 30
0.0
 11
272.987137
 21
305.456542
 31
0.0
  0
LINE
  5
2D06
  8
0
 62
     0
 10
271.5
 20
294.989151
 30
0.0
 11
272.987137
 21
296.476288
 31
0.0
  0
LINE
  5
2D07
  8
0
 62
     0
 10
271.5
 20
286.008897
 30
0.0
 11
272.987137
 21
287.496033
 31
0.0
  0
LINE
  5
2D08
  8
0
 62
     0
 10
271.5
 20
277.028642
 30
0.0
 11
272.987137
 21
278.515779
 31
0.0
  0
LINE
  5
2D09
  8
0
 62
     0
 10
271.5
 20
268.048388
 30
0.0
 11
272.987137
 21
269.535524
 31
0.0
  0
LINE
  5
2D0A
  8
0
 62
     0
 10
271.5
 20
259.068133
 30
0.0
 11
272.987137
 21
260.55527
 31
0.0
  0
LINE
  5
2D0B
  8
0
 62
     0
 10
271.5
 20
250.087879
 30
0.0
 11
272.987137
 21
251.575015
 31
0.0
  0
LINE
  5
2D0C
  8
0
 62
     0
 10
271.5
 20
241.107624
 30
0.0
 11
272.987137
 21
242.594761
 31
0.0
  0
LINE
  5
2D0D
  8
0
 62
     0
 10
271.5
 20
232.127369
 30
0.0
 11
272.987137
 21
233.614506
 31
0.0
  0
LINE
  5
2D0E
  8
0
 62
     0
 10
271.5
 20
223.147115
 30
0.0
 11
272.987137
 21
224.634251
 31
0.0
  0
LINE
  5
2D0F
  8
0
 62
     0
 10
271.5
 20
214.16686
 30
0.0
 11
272.987137
 21
215.653997
 31
0.0
  0
LINE
  5
2D10
  8
0
 62
     0
 10
271.5
 20
205.186606
 30
0.0
 11
272.987137
 21
206.673742
 31
0.0
  0
LINE
  5
2D11
  8
0
 62
     0
 10
259.293096
 20
183.999451
 30
0.0
 11
260.793096
 21
185.499451
 31
0.0
  0
LINE
  5
2D12
  8
0
 62
     0
 10
268.273353
 20
183.999451
 30
0.0
 11
269.773354
 21
185.499451
 31
0.0
  0
LINE
  5
2D13
  8
0
 62
     0
 10
271.5
 20
196.206351
 30
0.0
 11
272.987137
 21
197.693488
 31
0.0
  0
LINE
  5
2D14
  8
0
 62
     0
 10
271.5
 20
187.226097
 30
0.0
 11
272.987137
 21
188.713233
 31
0.0
  0
ENDBLK
  5
2E0B
  8
0
  0
BLOCK
  8
0
  2
*X96
 70
     1
 10
0.0
 20
0.0
 30
0.0
  3
*X96
  1

  0
LINE
  5
2D1D
  8
0
 62
     0
 10
253.0
 20
500.995521
 30
0.0
 11
253.003884
 21
500.999405
 31
0.0
  0
LINE
  5
2D1E
  8
0
 62
     0
 10
260.484141
 20
499.499405
 30
0.0
 11
261.984142
 21
500.999405
 31
0.0
  0
LINE
  5
2D1F
  8
0
 62
     0
 10
269.464399
 20
499.499405
 30
0.0
 11
270.964399
 21
500.999405
 31
0.0
  0
LINE
  5
2D20
  8
0
 62
     0
 10
271.5
 20
492.554751
 30
0.0
 11
273.0
 21
494.05475
 31
0.0
  0
LINE
  5
2D21
  8
0
 62
     0
 10
271.5
 20
483.574496
 30
0.0
 11
273.0
 21
485.074496
 31
0.0
  0
LINE
  5
2D22
  8
0
 62
     0
 10
271.5
 20
474.594242
 30
0.0
 11
273.0
 21
476.094241
 31
0.0
  0
LINE
  5
2D23
  8
0
 62
     0
 10
271.5
 20
465.613987
 30
0.0
 11
273.0
 21
467.113987
 31
0.0
  0
LINE
  5
2D24
  8
0
 62
     0
 10
271.5
 20
456.633733
 30
0.0
 11
273.0
 21
458.133732
 31
0.0
  0
LINE
  5
2D25
  8
0
 62
     0
 10
271.5
 20
447.653478
 30
0.0
 11
273.0
 21
449.153478
 31
0.0
  0
LINE
  5
2D26
  8
0
 62
     0
 10
271.5
 20
438.673224
 30
0.0
 11
273.0
 21
440.173223
 31
0.0
  0
LINE
  5
2D27
  8
0
 62
     0
 10
271.5
 20
429.692969
 30
0.0
 11
273.0
 21
431.192969
 31
0.0
  0
LINE
  5
2D28
  8
0
 62
     0
 10
271.5
 20
420.712715
 30
0.0
 11
273.0
 21
422.212714
 31
0.0
  0
LINE
  5
2D29
  8
0
 62
     0
 10
271.5
 20
411.73246
 30
0.0
 11
273.0
 21
413.23246
 31
0.0
  0
LINE
  5
2D2A
  8
0
 62
     0
 10
271.5
 20
402.752206
 30
0.0
 11
273.0
 21
404.252205
 31
0.0
  0
LINE
  5
2D2B
  8
0
 62
     0
 10
271.5
 20
393.771951
 30
0.0
 11
273.0
 21
395.271951
 31
0.0
  0
LINE
  5
2D2C
  8
0
 62
     0
 10
271.5
 20
384.791697
 30
0.0
 11
273.0
 21
386.291696
 31
0.0
  0
LINE
  5
2D2D
  8
0
 62
     0
 10
271.5
 20
375.811442
 30
0.0
 11
273.0
 21
377.311442
 31
0.0
  0
LINE
  5
2D2E
  8
0
 62
     0
 10
271.5
 20
366.831187
 30
0.0
 11
273.0
 21
368.331187
 31
0.0
  0
LINE
  5
2D2F
  8
0
 62
     0
 10
271.5
 20
357.850933
 30
0.0
 11
273.0
 21
359.350932
 31
0.0
  0
LINE
  5
2D30
  8
0
 62
     0
 10
271.5
 20
348.870678
 30
0.0
 11
273.0
 21
350.370678
 31
0.0
  0
LINE
  5
2D31
  8
0
 62
     0
 10
271.609027
 20
339.999451
 30
0.0
 11
273.0
 21
341.390423
 31
0.0
  0
ENDBLK
  5
2E0D
  8
0
  0
BLOCK
  8
0
  2
*X97
 70
     1
 10
0.0
 20
0.0
 30
0.0
  3
*X97
  1

  0
LINE
  5
2DB6
  8
0
 10
963.0
 20
386.012207
 30
0.0
 11
965.987245
 21
388.999451
 31
0.0
  0
LINE
  5
2DB7
  8
0
 10
963.0
 20
381.52208
 30
0.0
 11
970.477374
 21
388.999451
 31
0.0
  0
LINE
  5
2DB8
  8
0
 10
963.233715
 20
377.265668
 30
0.0
 11
974.800003
 21
388.831951
 31
0.0
  0
LINE
  5
2DB9
  8
0
 10
964.968196
 20
374.510021
 30
0.0
 11
974.800003
 21
384.341824
 31
0.0
  0
LINE
  5
2DBA
  8
0
 10
968.026257
 20
373.077953
 30
0.0
 11
974.800003
 21
379.851697
 31
0.0
  0
ENDBLK
  5
2E0F
  8
0
  0
BLOCK
  8
0
  2
*X98
 70
     1
 10
0.0
 20
0.0
 30
0.0
  3
*X98
  1

  0
LINE
  5
2DC1
  8
0
 10
745.199997
 20
386.012207
 30
0.0
 11
748.187242
 21
388.999451
 31
0.0
  0
LINE
  5
2DC2
  8
0
 10
745.199997
 20
381.52208
 30
0.0
 11
752.677371
 21
388.999451
 31
0.0
  0
LINE
  5
2DC3
  8
0
 10
745.433701
 20
377.265656
 30
0.0
 11
757.0
 21
388.831951
 31
0.0
  0
LINE
  5
2DC4
  8
0
 10
747.168186
 20
374.510014
 30
0.0
 11
757.0
 21
384.341824
 31
0.0
  0
LINE
  5
2DC5
  8
0
 10
750.226252
 20
373.077952
 30
0.0
 11
757.0
 21
379.851697
 31
0.0
  0
ENDBLK
  5
2E11
  8
0
  0
BLOCK
  8
0
  2
*X99
 70
     1
 10
0.0
 20
0.0
 30
0.0
  3
*X99
  1

  0
LINE
  5
2DCC
  8
0
 10
286.012782
 20
504.999405
 30
0.0
 11
289.0
 21
502.012186
 31
0.0
  0
LINE
  5
2DCD
  8
0
 10
281.522655
 20
504.999405
 30
0.0
 11
289.0
 21
497.522057
 31
0.0
  0
LINE
  5
2DCE
  8
0
 10
277.266225
 20
504.765707
 30
0.0
 11
288.832527
 21
493.199402
 31
0.0
  0
LINE
  5
2DCF
  8
0
 10
274.510575
 20
503.03123
 30
0.0
 11
284.342399
 21
493.199402
 31
0.0
  0
LINE
  5
2DD0
  8
0
 10
273.078504
 20
499.973172
 30
0.0
 11
279.852272
 21
493.199402
 31
0.0
  0
ENDBLK
  5
2E13
  8
0
  0
BLOCK
  8
0
  2
*X100
 70
     1
 10
0.0
 20
0.0
 30
0.0
  3
*X100
  1

  0
LINE
  5
2DD7
  8
0
 10
273.780182
 20
186.95153
 30
0.0
 11
276.039264
 21
189.210612
 31
0.0
  0
LINE
  5
2DD8
  8
0
 10
273.329437
 20
182.010658
 30
0.0
 11
281.318232
 21
189.999451
 31
0.0
  0
LINE
  5
2DD9
  8
0
 10
275.177192
 20
179.368285
 30
0.0
 11
285.808361
 21
189.999451
 31
0.0
  0
LINE
  5
2DDA
  8
0
 10
278.344628
 20
178.045593
 30
0.0
 11
287.5
 21
187.200962
 31
0.0
  0
LINE
  5
2DDB
  8
0
 10
282.788615
 20
177.999451
 30
0.0
 11
287.5
 21
182.710835
 31
0.0
  0
LINE
  5
2DDC
  8
0
 10
287.278743
 20
177.999451
 30
0.0
 11
287.5
 21
178.220707
 31
0.0
  0
ENDBLK
  5
2E15
  8
0
  0
ENDSEC
  0
SECTION
  2
ENTITIES
  0
LINE
  5
7B2
  8
0
 10
253.0
 20
500.999405
 30
0.0
 11
253.0
 21
499.499405
 31
0.0
  0
POLYLINE
  5
7B5
  8
0
 66
     1
 10
0.0
 20
0.0
 30
0.0
  0
VERTEX
  5
2A81
  8
0
 10
325.499985
 20
529.999405
 30
0.0
  0
VERTEX
  5
2A82
  8
0
 10
330.0
 20
529.999405
 30
0.0
  0
VERTEX
  5
2A83
  8
0
 10
330.0
 20
339.999451
 30
0.0
  0
SEQEND
  5
2E16
  8
0
  0
LINE
  5
7B6
  8
0
 10
230.0
 20
504.999405
 30
0.0
 11
230.0
 21
339.999451
 31
0.0
  0
LINE
  5
7B7
  8
0
 10
230.0
 20
334.999451
 30
0.0
 11
230.0
 21
173.250534
 31
0.0
  0
LINE
  5
7B8
  8
0
  6
HIDDEN
 10
270.0
 20
149.499451
 30
0.0
 11
228.5
 21
171.602066
 31
0.0
  0
LINE
  5
7B9
  8
0
  6
HIDDEN
 10
228.5
 20
149.511017
 30
0.0
 11
270.0
 21
173.384872
 31
0.0
  0
LINE
  5
7BA
  8
0
  6
HIDDEN
 10
270.0
 20
174.889908
 30
0.0
 11
270.0
 21
147.999451
 31
0.0
  0
INSERT
  5
7BB
  8
0
  6
CONTINUOUS
 62
     0
  2
*X77
 10
0.0
 20
0.0
 30
0.0
1001
ACAD
1000
HATCH
1002
{
1070
    19
1000
ANSI31
1040
2.0
1040
0.0
1000
R14_HATCH_DATA
1000
7BB
1011
1.0
1021
0.0
1031
0.0
1021
0.0
1031
0.0
1011
0.0
1021
1.0
1031
0.0
1021
1.0
1031
0.0
1011
0.0
1021
0.0
1031
1.0
1021
0.0
1031
1.0
1040
0.0
1010
0.0
1020
0.0
1030
1.0
1000
ANSI31
1070
     0
1070
     1
1071
        1
1071
        7
1070
     1
1070
     1
1071
       15
1040
325.5
1040
192.999451
1040
0.0
1040
279.5
1040
192.999451
1040
0.414214
1040
278.0
1040
191.499451
1040
0.414214
1040
279.5
1040
189.999451
1040
0.0
1040
289.0
1040
189.999451
1040
0.0
1040
289.0
1040
185.92392
1040
0.0
1040
289.529999
1040
185.449066
1040
0.0
1040
290.5
1040
185.449066
1040
0.0
1040
290.5
1040
189.999451
1040
0.414214
1040
289.0
1040
191.499451
1040
0.0
1040
325.5
1040
191.499451
1040
0.0
1040
325.5
1040
185.924408
1040
0.0
1040
326.699997
1040
186.999542
1040
0.0
1040
327.0
1040
186.999542
1040
0.0
1040
327.0
1040
191.499451
1040
0.414214
1071
        0
1070
     1
1070
     1
1040
0.0
1040
2.0
1070
     0
1070
     1
1040
0.785398
1040
-1188.005966
1040
-15.000549
1040
-4.490128
1040
4.490128
1070
     0
1040
0.064099
1071
        1
1040
316.958633
1040
192.175003
1040
0.0
1002
}
  0
POLYLINE
  5
7BC
  8
0
 66
     1
 10
0.0
 20
0.0
 30
0.0
 70
     1
  0
VERTEX
  5
2A8C
  8
0
 10
290.5
 20
177.999451
 30
0.0
  0
VERTEX
  5
2A8D
  8
0
 10
290.5
 20
189.999451
 30
0.0
 42
0.414214
  0
VERTEX
  5
2A8E
  8
0
 10
289.0
 20
191.499451
 30
0.0
  0
VERTEX
  5
2A8F
  8
0
 10
279.5
 20
191.499451
 30
0.0
  0
VERTEX
  5
2A90
  8
0
 10
325.5
 20
191.499451
 30
0.0
  0
VERTEX
  5
2A91
  8
0
 10
325.5
 20
159.999451
 30
0.0
  0
VERTEX
  5
2A92
  8
0
 10
327.0
 20
159.999451
 30
0.0
  0
VERTEX
  5
2A93
  8
0
 10
327.0
 20
191.499451
 30
0.0
 42
0.414214
  0
VERTEX
  5
2A94
  8
0
 10
325.5
 20
192.999451
 30
0.0
  0
VERTEX
  5
2A95
  8
0
 10
279.5
 20
192.999451
 30
0.0
 42
0.414214
  0
VERTEX
  5
2A96
  8
0
 10
278.0
 20
191.499451
 30
0.0
 42
0.414214
  0
VERTEX
  5
2A97
  8
0
 10
279.5
 20
189.999451
 30
0.0
  0
VERTEX
  5
2A98
  8
0
 10
289.0
 20
189.999451
 30
0.0
  0
VERTEX
  5
2A99
  8
0
 10
289.0
 20
177.999451
 30
0.0
  0
SEQEND
  5
2E17
  8
0
  0
LINE
  5
7BD
  8
0
 10
278.0
 20
191.499451
 30
0.0
 11
278.0
 21
334.999451
 31
0.0
  0
INSERT
  5
7BE
  8
0
 62
     0
  2
*X78
 10
0.0
 20
0.0
 30
0.0
1001
ACAD
1000
HATCH
1002
{
1070
    19
1000
ANSI31
1040
2.0
1040
0.0
1000
R14_HATCH_DATA
1000
7BE
1011
1.0
1021
0.0
1031
0.0
1021
0.0
1031
0.0
1011
0.0
1021
1.0
1031
0.0
1021
1.0
1031
0.0
1011
0.0
1021
0.0
1031
1.0
1021
0.0
1031
1.0
1040
0.0
1010
0.0
1020
0.0
1030
1.0
1000
ANSI31
1070
     0
1070
     1
1071
        2
1071
        7
1070
     1
1070
     1
1071
        7
1040
204.5
1040
528.802063
1040
0.0
1040
230.0
1040
532.66066
1040
0.0
1040
230.0
1040
534.17366
1040
0.0
1040
204.167572
1040
530.264755
1040
0.350174
1040
203.0
1040
528.802063
1040
0.0
1040
203.0
1040
504.999405
1040
0.0
1040
204.5
1040
504.999405
1040
0.0
1071
        0
1071
        7
1070
     1
1070
     1
1071
        7
1040
268.832428
1040
538.536697
1040
0.350174
1040
270.0
1040
539.999405
1040
0.0
1040
270.0
1040
564.999405
1040
0.0
1040
268.5
1040
564.999405
1040
0.0
1040
268.5
1040
539.999405
1040
0.0
1040
230.0
1040
534.17366
1040
0.0
1040
230.0
1040
532.66066
1040
0.0
1071
        0
1070
     1
1070
     1
1040
0.0
1040
2.0
1070
     0
1070
     1
1040
0.785398
1040
0.0
1040
0.0
1040
-4.490128
1040
4.490128
1070
     0
1040
0.041782
1071
        2
1040
203.782089
1040
518.26268
1040
0.0
1040
234.472412
1040
534.061096
1040
0.0
1002
}
  0
LINE
  5
7BF
  8
0
 10
230.0
 20
504.999405
 30
0.0
 11
230.0
 21
534.17366
 31
0.0
  0
INSERT
  5
7C0
  8
0
  6
CONTINUOUS
 62
     0
  2
*X79
 10
0.0
 20
0.0
 30
0.0
1001
ACAD
1000
HATCH
1002
{
1070
    19
1000
ANSI31
1040
2.0
1040
0.0
1000
R14_HATCH_DATA
1000
7C0
1011
1.0
1021
0.0
1031
0.0
1021
0.0
1031
0.0
1011
0.0
1021
1.0
1031
0.0
1021
1.0
1031
0.0
1011
0.0
1021
0.0
1031
1.0
1021
0.0
1031
1.0
1040
0.0
1010
0.0
1020
0.0
1030
1.0
1000
ANSI31
1070
     0
1070
     1
1071
        1
1071
        1
1071
       16
1070
     2
1040
287.500002
1040
177.999446
1040
1.499998
1040
4.807052
1040
6.283188
1070
     1
1070
     1
1040
289.0
1040
177.999451
1040
289.0
1040
189.499451
1070
     1
1040
289.0
1040
189.499451
1040
287.5
1040
189.499451
1070
     1
1040
287.5
1040
189.499451
1040
287.5
1040
179.999451
1070
     1
1040
287.5
1040
179.999451
1040
287.5
1040
177.999451
1070
     1
1040
287.5
1040
177.999451
1040
228.358215
1040
173.095352
1070
     2
1040
228.499998
1040
171.60207
1040
1.499998
1040
1.665459
1040
3.141595
1070
     1
1070
     1
1040
227.0
1040
171.602066
1040
227.0
1040
149.499451
1070
     2
1040
228.5
1040
149.499451
1040
1.5
1040
3.141593
1040
4.712389
1070
     1
1070
     1
1040
228.5
1040
147.999451
1040
235.5
1040
147.999451
1070
     1
1040
235.5
1040
147.999451
1040
235.5
1040
148.299454
1070
     1
1040
235.5
1040
148.299454
1040
236.57515
1040
149.499451
1070
     1
1040
236.57515
1040
149.499451
1040
228.5
1040
149.499451
1070
     1
1040
228.5
1040
149.499451
1040
228.5
1040
151.799454
1070
     1
1040
228.5
1040
151.799454
1040
228.5
1040
171.602066
1070
     1
1040
228.5
1040
171.602066
1040
287.641785
1040
176.506165
1071
        0
1070
     1
1070
     1
1040
0.0
1040
2.0
1070
     0
1070
     1
1040
0.785398
1040
-1188.005966
1040
-15.000549
1040
-4.490128
1040
4.490128
1070
     0
1071
        1
1040
238.419846
1040
173.255692
1040
0.0
1002
}
  0
INSERT
  5
7C1
  8
0
 62
     0
  2
*X80
 10
0.0
 20
0.0
 30
0.0
1001
ACAD
1000
HATCH
1002
{
1070
    19
1000
ANSI31
1040
2.0
1040
0.0
1000
R14_HATCH_DATA
1000
7C1
1011
1.0
1021
0.0
1031
0.0
1021
0.0
1031
0.0
1011
0.0
1021
1.0
1031
0.0
1021
1.0
1031
0.0
1011
0.0
1021
0.0
1031
1.0
1021
0.0
1031
1.0
1040
0.0
1010
0.0
1020
0.0
1030
1.0
1000
ANSI31
1070
     0
1070
     1
1071
        1
1071
        7
1070
     1
1070
     1
1071
        9
1040
268.5
1040
149.499451
1040
0.0
1040
240.5
1040
149.499451
1040
0.0
1040
240.5
1040
149.39946
1040
0.0
1040
241.600006
1040
148.299454
1040
0.0
1040
241.600006
1040
147.999451
1040
0.0
1040
268.5
1040
147.999451
1040
0.0
1040
268.5
1040
127.999451
1040
0.0
1040
270.0
1040
127.999451
1040
0.0
1040
270.0
1040
147.999451
1040
0.414214
1071
        0
1070
     1
1070
     1
1040
0.0
1040
2.0
1070
     0
1070
     1
1040
0.785398
1040
0.0
1040
0.0
1040
-4.490128
1040
4.490128
1070
     0
1040
0.066102
1071
        1
1040
247.620651
1040
148.580643
1040
0.0
1002
}
  0
POLYLINE
  5
7C2
  8
0
 66
     1
 10
0.0
 20
0.0
 30
0.0
  0
VERTEX
  5
2ABB
  8
0
 10
289.0
 20
177.999451
 30
0.0
  0
VERTEX
  5
2ABC
  8
0
 10
289.0
 20
189.499451
 30
0.0
  0
VERTEX
  5
2ABD
  8
0
 10
287.5
 20
189.499451
 30
0.0
  0
VERTEX
  5
2ABE
  8
0
 10
287.5
 20
177.999451
 30
0.0
  0
VERTEX
  5
2ABF
  8
0
 10
228.39389
 20
173.098312
 30
0.0
 42
0.393625
  0
VERTEX
  5
2AC0
  8
0
 10
227.0
 20
171.602066
 30
0.0
  0
VERTEX
  5
2AC1
  8
0
 10
227.0
 20
149.499451
 30
0.0
 42
0.414214
  0
VERTEX
  5
2AC2
  8
0
 10
228.5
 20
147.999451
 30
0.0
  0
VERTEX
  5
2AC3
  8
0
 10
268.5
 20
147.999451
 30
0.0
  0
VERTEX
  5
2AC4
  8
0
 10
268.5
 20
127.999451
 30
0.0
  0
VERTEX
  5
2AC5
  8
0
 10
270.0
 20
127.999451
 30
0.0
  0
VERTEX
  5
2AC6
  8
0
 10
270.0
 20
147.999451
 30
0.0
 42
0.414214
  0
VERTEX
  5
2AC7
  8
0
 10
268.5
 20
149.499451
 30
0.0
  0
VERTEX
  5
2AC8
  8
0
 10
228.5
 20
149.499451
 30
0.0
  0
VERTEX
  5
2AC9
  8
0
 10
228.5
 20
171.602066
 30
0.0
  0
VERTEX
  5
2ACA
  8
0
 10
287.60611
 20
176.503204
 30
0.0
 42
0.393625
  0
VERTEX
  5
2ACB
  8
0
 10
289.0
 20
177.999451
 30
0.0
  0
SEQEND
  5
2E18
  8
0
  0
LINE
  5
7C3
  8
0
  6
CENTER2
 10
293.600006
 20
508.099411
 30
0.0
 11
323.899994
 21
493.099411
 31
0.0
  0
LINE
  5
7C4
  8
0
  6
CENTER2
 10
323.899994
 20
508.099411
 30
0.0
 11
293.600006
 21
493.099411
 31
0.0
  0
LINE
  5
7C5
  8
0
  6
HIDDEN
 10
204.5
 20
528.802063
 30
0.0
 11
271.5
 21
504.999405
 31
0.0
  0
LINE
  5
7C6
  8
0
  6
HIDDEN
 10
204.5
 20
504.999405
 30
0.0
 11
271.5
 21
539.05159
 31
0.0
  0
INSERT
  5
7C7
  8
0
 62
     0
  2
*X81
 10
0.0
 20
0.0
 30
0.0
1001
ACAD
1000
HATCH
1002
{
1070
    19
1000
ANSI31
1040
2.0
1040
0.0
1000
R14_HATCH_DATA
1000
7C7
1011
1.0
1021
0.0
1031
0.0
1021
0.0
1031
0.0
1011
0.0
1021
1.0
1031
0.0
1021
1.0
1031
0.0
1011
0.0
1021
0.0
1031
1.0
1021
0.0
1031
1.0
1040
0.0
1010
0.0
1020
0.0
1030
1.0
1000
ANSI31
1070
     0
1070
     1
1071
        3
1071
        7
1070
     1
1070
     1
1071
       11
1040
266.942505
1040
536.735275
1040
0.0
1040
271.5
1040
539.05159
1040
0.0
1040
271.5
1040
564.999405
1040
0.0
1040
270.0
1040
564.999405
1040
0.0
1040
270.0
1040
538.710678
1040
0.0
1040
234.167572
1040
533.29129
1040
0.350174
1040
233.0
1040
531.828598
1040
0.0
1040
233.0
1040
519.484283
1040
0.0
1040
234.5
1040
520.246643
1040
0.0
1040
234.5
1040
530.456741
1040
0.0
1040
234.5
1040
531.828598
1040
0.0
1071
        0
1071
        7
1070
     1
1070
     1
1071
        8
1040
234.5
1040
518.14415
1040
0.0
1040
233.0
1040
518.677048
1040
0.0
1040
233.0
1040
506.499405
1040
0.414214
1040
234.5
1040
504.999405
1040
0.0
1040
271.5
1040
504.999405
1040
0.0
1040
267.277786
1040
506.499405
1040
0.0
1040
236.100006
1040
506.499405
1040
0.0
1040
234.5
1040
506.499405
1040
0.0
1071
        0
1071
        7
1070
     1
1070
     1
1071
        9
1040
289.0
1040
506.499405
1040
0.0
1040
271.5
1040
506.499405
1040
0.0
1040
271.5
1040
504.999405
1040
0.0
1040
289.0
1040
504.999405
1040
0.0
1040
289.0
1040
502.362305
1040
0.0
1040
289.300003
1040
502.362305
1040
0.0
1040
290.399994
1040
501.262299
1040
0.0
1040
290.5
1040
501.262299
1040
0.0
1040
290.5
1040
504.999405
1040
0.414214
1071
        0
1070
     1
1070
     1
1040
0.0
1040
2.0
1070
     0
1070
     1
1040
0.785398
1040
0.0
1040
0.0
1040
-4.490128
1040
4.490128
1070
     0
1040
0.173987
1071
        3
1040
234.043045
1040
531.979202
1040
0.0
1040
233.454178
1040
509.915512
1040
0.0
1040
278.916046
1040
505.710312
1040
0.0
1002
}
  0
LINE
  5
7C8
  8
0
 10
271.5
 20
538.710678
 30
0.0
 11
271.5
 21
504.999405
 31
0.0
  0
POLYLINE
  5
7C9
  8
0
  6
HIDDEN
 66
     1
 10
0.0
 20
0.0
 30
0.0
  0
VERTEX
  5
2ADE
  8
0
  6
HIDDEN
 10
323.199997
 20
174.999451
 30
0.0
  0
VERTEX
  5
2ADF
  8
0
  6
HIDDEN
 10
325.5
 20
174.999451
 30
0.0
  0
VERTEX
  5
2AE0
  8
0
  6
HIDDEN
 10
325.5
 20
151.799454
 30
0.0
 42
-0.414214
  0
VERTEX
  5
2AE1
  8
0
  6
HIDDEN
 10
323.199997
 20
149.499451
 30
0.0
  0
VERTEX
  5
2AE2
  8
0
  6
HIDDEN
 10
252.356247
 20
149.499451
 30
0.0
  0
VERTEX
  5
2AE3
  8
0
  6
HIDDEN
 10
252.356247
 20
151.799454
 30
0.0
  0
VERTEX
  5
2AE4
  8
0
  6
HIDDEN
 10
323.199997
 20
151.799454
 30
0.0
  0
VERTEX
  5
2AE5
  8
0
  6
HIDDEN
 10
323.199997
 20
174.999451
 30
0.0
  0
SEQEND
  5
2E19
  8
0
  6
HIDDEN
  0
INSERT
  5
7CA
  8
0
 62
     0
  2
*X82
 10
0.0
 20
0.0
 30
0.0
1001
ACAD
1000
HATCH
1002
{
1070
    19
1000
ANSI31
1040
2.0
1040
0.0
1000
R14_HATCH_DATA
1000
7CA
1011
1.0
1021
0.0
1031
0.0
1021
0.0
1031
0.0
1011
0.0
1021
1.0
1031
0.0
1021
1.0
1031
0.0
1011
0.0
1021
0.0
1031
1.0
1021
0.0
1031
1.0
1040
0.0
1010
0.0
1020
0.0
1030
1.0
1000
ANSI31
1070
     0
1070
     1
1071
        1
1071
        7
1070
     0
1070
     1
1071
        5
1040
270.0
1040
564.999405
1040
268.5
1040
564.999405
1040
268.5
1040
562.999786
1040
268.800003
1040
562.999786
1040
270.0
1040
561.924652
1071
        0
1070
     1
1070
     1
1040
0.0
1040
2.0
1070
     0
1070
     1
1040
0.785398
1040
773.529709
1040
1435.508102
1040
-4.490128
1040
4.490128
1070
     0
1040
0.030959
1071
        1
1040
269.60965
1040
563.517975
1040
0.0
1002
}
  0
POLYLINE
  5
7CB
  8
0
 66
     1
 10
0.0
 20
0.0
 30
0.0
  0
VERTEX
  5
2AE8
  8
0
 10
204.5
 20
504.999405
 30
0.0
  0
VERTEX
  5
2AE9
  8
0
 10
203.0
 20
504.999405
 30
0.0
  0
VERTEX
  5
2AEA
  8
0
 10
203.0
 20
528.802063
 30
0.0
 42
-0.350174
  0
VERTEX
  5
2AEB
  8
0
 10
204.167572
 20
530.264755
 30
0.0
  0
VERTEX
  5
2AEC
  8
0
 10
268.5
 20
539.999405
 30
0.0
  0
VERTEX
  5
2AED
  8
0
 10
268.5
 20
564.999405
 30
0.0
  0
VERTEX
  5
2AEE
  8
0
 10
270.0
 20
564.999405
 30
0.0
  0
VERTEX
  5
2AEF
  8
0
 10
270.0
 20
539.999405
 30
0.0
 42
-0.350174
  0
VERTEX
  5
2AF0
  8
0
 10
268.832428
 20
538.536697
 30
0.0
  0
VERTEX
  5
2AF1
  8
0
 10
204.5
 20
528.802063
 30
0.0
  0
VERTEX
  5
2AF2
  8
0
 10
204.5
 20
504.999405
 30
0.0
  0
VERTEX
  5
2AF3
  8
0
 10
234.5
 20
504.999405
 30
0.0
  0
SEQEND
  5
2E1A
  8
0
  0
POLYLINE
  5
7CC
  8
0
 66
     1
 10
0.0
 20
0.0
 30
0.0
 70
     1
  0
VERTEX
  5
2AF4
  8
0
 10
234.5
 20
531.828598
 30
0.0
  0
VERTEX
  5
2AF5
  8
0
 10
270.332428
 20
537.247971
 30
0.0
 42
0.350174
  0
VERTEX
  5
2AF6
  8
0
 10
271.5
 20
538.710678
 30
0.0
  0
VERTEX
  5
2AF7
  8
0
 10
271.5
 20
564.999405
 30
0.0
  0
VERTEX
  5
2AF8
  8
0
 10
270.0
 20
564.999405
 30
0.0
  0
VERTEX
  5
2AF9
  8
0
 10
270.0
 20
538.710678
 30
0.0
  0
VERTEX
  5
2AFA
  8
0
 10
234.167572
 20
533.29129
 30
0.0
 42
0.350174
  0
VERTEX
  5
2AFB
  8
0
 10
233.0
 20
531.828598
 30
0.0
  0
VERTEX
  5
2AFC
  8
0
 10
233.0
 20
506.499405
 30
0.0
 42
0.414214
  0
VERTEX
  5
2AFD
  8
0
 10
234.5
 20
504.999405
 30
0.0
  0
VERTEX
  5
2AFE
  8
0
 10
289.0
 20
504.999405
 30
0.0
  0
VERTEX
  5
2AFF
  8
0
 10
289.0
 20
493.999405
 30
0.0
  0
VERTEX
  5
2B00
  8
0
 10
290.5
 20
493.999405
 30
0.0
  0
VERTEX
  5
2B01
  8
0
 10
290.5
 20
504.999405
 30
0.0
 42
0.414214
  0
VERTEX
  5
2B02
  8
0
 10
289.0
 20
506.499405
 30
0.0
  0
VERTEX
  5
2B03
  8
0
 10
234.5
 20
506.499405
 30
0.0
  0
SEQEND
  5
2E1B
  8
0
  0
INSERT
  5
7CD
  8
0
 62
     0
  2
*X83
 10
0.0
 20
0.0
 30
0.0
1001
ACAD
1000
HATCH
1002
{
1070
    19
1000
ANSI31
1040
2.0
1040
0.0
1000
R14_HATCH_DATA
1000
7CD
1011
1.0
1021
0.0
1031
0.0
1021
0.0
1031
0.0
1011
0.0
1021
1.0
1031
0.0
1021
1.0
1031
0.0
1011
0.0
1021
0.0
1031
1.0
1021
0.0
1031
1.0
1040
0.0
1010
0.0
1020
0.0
1030
1.0
1000
ANSI31
1070
     0
1070
     1
1071
        1
1071
        7
1070
     1
1070
     1
1071
       16
1040
327.0
1040
491.499405
1040
0.0
1040
327.0
1040
528.499405
1040
0.414214
1040
325.5
1040
529.999405
1040
0.0
1040
317.5
1040
529.999405
1040
0.0
1040
317.5
1040
528.499405
1040
0.0
1040
325.5
1040
528.499405
1040
0.0
1040
325.5
1040
491.499405
1040
0.0
1040
290.5
1040
491.499405
1040
0.414214
1040
292.0
1040
492.999405
1040
0.0
1040
292.0
1040
499.262299
1040
0.0
1040
290.5
1040
499.262299
1040
0.0
1040
290.5
1040
492.999405
1040
0.0
1040
279.5
1040
492.999405
1040
0.414214
1040
278.0
1040
491.499405
1040
0.414214
1040
279.5
1040
489.999405
1040
0.0
1040
325.5
1040
489.999405
1040
0.414214
1071
        0
1070
     1
1070
     1
1040
0.0
1040
2.0
1070
     0
1070
     1
1040
0.785398
1040
-1188.005966
1040
-0.000595
1040
-4.490128
1040
4.490128
1070
     0
1040
0.058729
1071
        1
1040
290.718719
1040
490.51944
1040
0.0
1002
}
  0
POLYLINE
  5
7CE
  8
0
 66
     1
 10
0.0
 20
0.0
 30
0.0
 70
     1
  0
VERTEX
  5
2B10
  8
0
 10
290.5
 20
492.999405
 30
0.0
  0
VERTEX
  5
2B11
  8
0
 10
279.5
 20
492.999405
 30
0.0
 42
0.414214
  0
VERTEX
  5
2B12
  8
0
 10
278.0
 20
491.499405
 30
0.0
 42
0.414214
  0
VERTEX
  5
2B13
  8
0
 10
279.5
 20
489.999405
 30
0.0
  0
VERTEX
  5
2B14
  8
0
 10
325.5
 20
489.999405
 30
0.0
 42
0.414214
  0
VERTEX
  5
2B15
  8
0
 10
327.0
 20
491.499405
 30
0.0
  0
VERTEX
  5
2B16
  8
0
 10
327.0
 20
528.499405
 30
0.0
 42
0.414214
  0
VERTEX
  5
2B17
  8
0
 10
325.5
 20
529.999405
 30
0.0
  0
VERTEX
  5
2B18
  8
0
 10
312.0
 20
529.999405
 30
0.0
  0
VERTEX
  5
2B19
  8
0
 10
312.0
 20
528.499405
 30
0.0
  0
VERTEX
  5
2B1A
  8
0
 10
325.5
 20
528.499405
 30
0.0
  0
VERTEX
  5
2B1B
  8
0
 10
325.5
 20
491.499405
 30
0.0
  0
VERTEX
  5
2B1C
  8
0
 10
279.5
 20
491.499405
 30
0.0
  0
VERTEX
  5
2B1D
  8
0
 10
290.5
 20
491.499405
 30
0.0
 42
0.414214
  0
VERTEX
  5
2B1E
  8
0
 10
292.0
 20
492.999405
 30
0.0
  0
VERTEX
  5
2B1F
  8
0
 10
292.0
 20
504.999405
 30
0.0
  0
VERTEX
  5
2B20
  8
0
 10
290.5
 20
504.999405
 30
0.0
  0
SEQEND
  5
2E1C
  8
0
  0
POLYLINE
  5
7CF
  8
0
 66
     1
 10
0.0
 20
0.0
 30
0.0
 70
     1
  0
VERTEX
  5
2B21
  8
0
 10
271.121658
 20
537.366562
 30
0.0
  0
VERTEX
  5
2B22
  8
0
 10
235.745407
 20
532.016953
 30
0.0
 42
0.350174
  0
VERTEX
  5
2B23
  8
0
 10
234.5
 20
530.456741
 30
0.0
  0
VERTEX
  5
2B24
  8
0
 10
234.5
 20
508.099411
 30
0.0
 42
0.414214
  0
VERTEX
  5
2B25
  8
0
 10
236.100006
 20
506.499405
 30
0.0
  0
VERTEX
  5
2B26
  8
0
 10
292.0
 20
506.499405
 30
0.0
  0
VERTEX
  5
2B27
  8
0
 10
292.0
 20
493.099411
 30
0.0
 42
0.414214
  0
VERTEX
  5
2B28
  8
0
 10
293.600006
 20
491.499405
 30
0.0
  0
VERTEX
  5
2B29
  8
0
 10
323.899994
 20
491.499405
 30
0.0
 42
0.414214
  0
VERTEX
  5
2B2A
  8
0
 10
325.5
 20
493.099411
 30
0.0
  0
VERTEX
  5
2B2B
  8
0
 10
325.5
 20
526.899399
 30
0.0
 42
0.414214
  0
VERTEX
  5
2B2C
  8
0
 10
323.899994
 20
528.499405
 30
0.0
  0
VERTEX
  5
2B2D
  8
0
 10
312.0
 20
528.499405
 30
0.0
  0
VERTEX
  5
2B2E
  8
0
 10
312.0
 20
526.899399
 30
0.0
  0
VERTEX
  5
2B2F
  8
0
 10
323.899994
 20
526.899399
 30
0.0
  0
VERTEX
  5
2B30
  8
0
 10
323.899994
 20
493.099411
 30
0.0
  0
VERTEX
  5
2B31
  8
0
 10
293.600006
 20
493.099411
 30
0.0
  0
VERTEX
  5
2B32
  8
0
 10
293.600006
 20
506.499405
 30
0.0
 42
0.414214
  0
VERTEX
  5
2B33
  8
0
 10
292.0
 20
508.099411
 30
0.0
  0
VERTEX
  5
2B34
  8
0
 10
236.100006
 20
508.099411
 30
0.0
  0
VERTEX
  5
2B35
  8
0
 10
236.100006
 20
530.456741
 30
0.0
  0
VERTEX
  5
2B36
  8
0
 10
271.476257
 20
535.806351
 30
0.0
  0
SEQEND
  5
2E1D
  8
0
  0
POLYLINE
  5
7D0
  8
0
  6
HIDDEN
 66
     1
 10
0.0
 20
0.0
 30
0.0
  0
VERTEX
  5
2B37
  8
0
  6
HIDDEN
 10
271.5
 20
564.999451
 30
0.0
  0
VERTEX
  5
2B38
  8
0
  6
HIDDEN
 10
273.800003
 20
564.999451
 30
0.0
  0
VERTEX
  5
2B39
  8
0
  6
HIDDEN
 10
273.800003
 20
526.89946
 30
0.0
  0
VERTEX
  5
2B3A
  8
0
  6
HIDDEN
 10
322.899994
 20
526.899399
 30
0.0
  0
VERTEX
  5
2B3B
  8
0
  6
HIDDEN
 10
322.899994
 20
524.599411
 30
0.0
  0
VERTEX
  5
2B3C
  8
0
  6
HIDDEN
 10
273.800003
 20
524.599457
 30
0.0
 42
-0.414214
  0
VERTEX
  5
2B3D
  8
0
  6
HIDDEN
 10
271.5
 20
526.89946
 30
0.0
  0
VERTEX
  5
2B3E
  8
0
  6
HIDDEN
 10
271.5
 20
564.999451
 30
0.0
  0
SEQEND
  5
2E1E
  8
0
  6
HIDDEN
  0
LINE
  5
7D1
  8
0
 10
278.0
 20
339.999451
 30
0.0
 11
278.0
 21
491.499405
 31
0.0
  0
POLYLINE
  5
7D2
  8
0
 66
     1
 10
0.0
 20
0.0
 30
0.0
  0
VERTEX
  5
2B3F
  8
0
 10
330.0
 20
334.999451
 30
0.0
  0
VERTEX
  5
2B40
  8
0
 10
330.0
 20
159.999451
 30
0.0
  0
VERTEX
  5
2B41
  8
0
 10
327.0
 20
159.999451
 30
0.0
  0
SEQEND
  5
2E1F
  8
0
  0
INSERT
  5
7D5
  8
0
 62
     0
  2
*X84
 10
0.0
 20
0.0
 30
0.0
1001
ACAD
1000
HATCH
1002
{
1070
    19
1000
ANSI31
1040
2.0
1040
0.0
1000
R14_HATCH_DATA
1000
7D5
1011
1.0
1021
0.0
1031
0.0
1021
0.0
1031
0.0
1011
0.0
1021
1.0
1031
0.0
1021
1.0
1031
0.0
1011
0.0
1021
0.0
1031
1.0
1021
0.0
1031
1.0
1040
0.0
1010
0.0
1020
0.0
1030
1.0
1000
ANSI31
1070
     0
1070
     1
1071
        1
1071
        7
1070
     1
1070
     1
1071
        8
1040
234.5
1040
474.499405
1040
0.0
1040
234.5
1040
499.499405
1040
0.0
1040
253.0
1040
499.499405
1040
0.0
1040
253.0
1040
500.999405
1040
0.0
1040
234.5
1040
500.999405
1040
0.414214
1040
233.0
1040
499.499405
1040
0.0
1040
233.0
1040
339.999451
1040
0.0
1040
234.5
1040
339.999451
1040
0.0
1071
        0
1070
     1
1070
     1
1040
0.0
1040
2.0
1070
     0
1070
     1
1040
0.785398
1040
-17.0
1040
2520.0
1040
-4.490128
1040
4.490128
1070
     0
1040
0.046657
1071
        1
1040
233.835159
1040
342.787033
1040
0.0
1002
}
  0
POLYLINE
  5
7D6
  8
0
  6
CONTINUOUS
 66
     1
 10
0.0
 20
0.0
 30
0.0
  0
VERTEX
  5
2B58
  8
0
  6
CONTINUOUS
 10
234.5
 20
339.999451
 30
0.0
  0
VERTEX
  5
2B59
  8
0
  6
CONTINUOUS
 10
234.5
 20
499.499405
 30
0.0
  0
VERTEX
  5
2B5A
  8
0
  6
CONTINUOUS
 10
253.0
 20
499.499405
 30
0.0
  0
VERTEX
  5
2B5B
  8
0
  6
CONTINUOUS
 10
253.0
 20
500.999405
 30
0.0
  0
VERTEX
  5
2B5C
  8
0
  6
CONTINUOUS
 10
234.5
 20
500.999405
 30
0.0
 42
0.414214
  0
VERTEX
  5
2B5D
  8
0
  6
CONTINUOUS
 10
233.0
 20
499.499405
 30
0.0
  0
VERTEX
  5
2B5E
  8
0
  6
CONTINUOUS
 10
233.0
 20
339.999451
 30
0.0
  0
SEQEND
  5
2E20
  8
0
  6
CONTINUOUS
  0
INSERT
  5
7D7
  8
0
 62
     0
  2
*X85
 10
0.0
 20
0.0
 30
0.0
1001
ACAD
1000
HATCH
1002
{
1070
    19
1000
ANSI31
1040
2.0
1040
0.0
1000
R14_HATCH_DATA
1000
7D7
1011
1.0
1021
0.0
1031
0.0
1021
0.0
1031
0.0
1011
0.0
1021
1.0
1031
0.0
1021
1.0
1031
0.0
1011
0.0
1021
0.0
1031
1.0
1021
0.0
1031
1.0
1040
0.0
1010
0.0
1020
0.0
1030
1.0
1000
ANSI31
1070
     0
1070
     1
1071
        2
1071
        7
1070
     1
1070
     1
1071
        7
1040
234.5
1040
185.499451
1040
0.0
1040
234.5
1040
334.999451
1040
0.0
1040
233.0
1040
334.999451
1040
0.0
1040
233.0
1040
185.499451
1040
0.414214
1040
234.5
1040
183.999451
1040
0.0
1040
253.0
1040
183.999451
1040
0.0
1040
253.0
1040
185.499451
1040
0.0
1071
        0
1071
        9
1071
        4
1070
     1
1040
227.883331
1040
239.972076
1040
235.116665
1040
239.972076
1070
     1
1040
235.116669
1040
239.972076
1040
235.116669
1040
250.472076
1070
     1
1040
235.116669
1040
250.472076
1040
227.883335
1040
250.472076
1070
     1
1040
227.883331
1040
250.472076
1040
227.883331
1040
239.972076
1071
        0
1070
     1
1070
     1
1040
0.0
1040
2.0
1070
     0
1070
     1
1040
0.785398
1040
0.0
1040
2520.0
1040
-4.490128
1040
4.490128
1070
     0
1040
0.120752
1071
        1
1040
250.836319
1040
317.2612
1040
0.0
1002
}
  0
POLYLINE
  5
7D8
  8
0
  6
CONTINUOUS
 66
     1
 10
0.0
 20
0.0
 30
0.0
  0
VERTEX
  5
2B72
  8
0
  6
CONTINUOUS
 10
234.5
 20
334.999451
 30
0.0
  0
VERTEX
  5
2B73
  8
0
  6
CONTINUOUS
 10
234.5
 20
185.499451
 30
0.0
  0
VERTEX
  5
2B74
  8
0
  6
CONTINUOUS
 10
253.0
 20
185.499451
 30
0.0
  0
VERTEX
  5
2B75
  8
0
  6
CONTINUOUS
 10
253.0
 20
183.999451
 30
0.0
  0
VERTEX
  5
2B76
  8
0
  6
CONTINUOUS
 10
234.5
 20
183.999451
 30
0.0
 42
-0.414214
  0
VERTEX
  5
2B77
  8
0
  6
CONTINUOUS
 10
233.0
 20
185.499451
 30
0.0
  0
VERTEX
  5
2B78
  8
0
  6
CONTINUOUS
 10
233.0
 20
334.999451
 30
0.0
  0
SEQEND
  5
2E21
  8
0
  6
CONTINUOUS
  0
LINE
  5
7DD
  8
0
  6
CONTINUOUS
 10
327.0
 20
189.999451
 30
0.0
 11
427.0
 21
189.999451
 31
0.0
  0
TEXT
  5
7DE
  8
0
 10
415.958496
 20
189.565887
 30
0.0
 40
7.0
  1
ＦＬ
 41
0.7
  7
TEXT_T1
 11
415.958496
 21
189.565887
 31
0.0
 73
     1
  0
POLYLINE
  5
7E0
  8
0
 66
     1
 10
0.0
 20
0.0
 30
0.0
  0
VERTEX
  5
2B79
  8
0
 10
293.600006
 20
493.099411
 30
0.0
  0
VERTEX
  5
2B7A
  8
0
 10
293.600006
 20
508.099411
 30
0.0
  0
VERTEX
  5
2B7B
  8
0
 10
323.899994
 20
508.099411
 30
0.0
  0
VERTEX
  5
2B7C
  8
0
 10
323.899994
 20
493.099411
 30
0.0
  0
VERTEX
  5
2B7D
  8
0
 10
323.899994
 20
506.499405
 30
0.0
  0
VERTEX
  5
2B7E
  8
0
 10
293.600006
 20
506.499405
 30
0.0
  0
SEQEND
  5
2E22
  8
0
  0
POLYLINE
  5
7E1
  8
0
  6
CONTINUOUS
 66
     1
 10
0.0
 20
0.0
 30
0.0
 70
     1
  0
VERTEX
  5
2B7F
  8
0
  6
CONTINUOUS
 10
140.0
 20
189.999451
 30
0.0
  0
VERTEX
  5
2B80
  8
0
  6
CONTINUOUS
 10
153.0
 20
202.999451
 30
0.0
  0
VERTEX
  5
2B81
  8
0
  6
CONTINUOUS
 10
127.0
 20
202.999451
 30
0.0
  0
SEQEND
  5
2E23
  8
0
  6
CONTINUOUS
  0
POLYLINE
  5
7E2
  8
0
  6
CONTINUOUS
 66
     1
 10
0.0
 20
0.0
 30
0.0
 70
     1
  0
VERTEX
  5
2B82
  8
0
  6
CONTINUOUS
 10
153.0
 20
476.999405
 30
0.0
  0
VERTEX
  5
2B83
  8
0
  6
CONTINUOUS
 10
140.0
 20
489.999405
 30
0.0
  0
VERTEX
  5
2B84
  8
0
  6
CONTINUOUS
 10
127.0
 20
476.999405
 30
0.0
  0
SEQEND
  5
2E24
  8
0
  6
CONTINUOUS
  0
LINE
  5
7E3
  8
0
  6
CENTER2
 10
230.0
 20
189.999451
 30
0.0
 11
97.0
 21
189.999451
 31
0.0
  0
INSERT
  5
7E4
  8
0
  6
CONTINUOUS
 62
     0
  2
*X86
 10
0.0
 20
0.0
 30
0.0
1001
ACAD
1000
HATCH
1002
{
1070
    19
1000
ANSI31
1040
2.0
1040
0.0
1000
R14_HATCH_DATA
1000
7E4
1011
1.0
1021
0.0
1031
0.0
1021
0.0
1031
0.0
1011
0.0
1021
1.0
1031
0.0
1021
1.0
1031
0.0
1011
0.0
1021
0.0
1031
1.0
1021
0.0
1031
1.0
1040
0.0
1010
0.0
1020
0.0
1030
1.0
1000
ANSI31
1070
     0
1070
     1
1071
        1
1071
        1
1071
        4
1070
     1
1040
886.0
1040
372.999451
1040
834.0
1040
372.999451
1070
     1
1040
834.0
1040
372.999451
1040
834.0
1040
371.499451
1070
     1
1040
834.0
1040
371.499451
1040
886.0
1040
371.499451
1070
     1
1040
886.0
1040
371.499451
1040
886.0
1040
372.999451
1071
        0
1070
     1
1070
     1
1040
0.0
1040
2.0
1070
     0
1070
     1
1040
0.785398
1040
1123.823502
1040
1256.605606
1040
-4.490128
1040
4.490128
1070
     0
1071
        1
1040
835.823959
1040
372.659073
1040
0.0
1002
}
  0
POLYLINE
  5
7E5
  8
0
 66
     1
 10
0.0
 20
0.0
 30
0.0
  0
VERTEX
  5
2B8C
  8
0
 10
834.0
 20
372.999451
 30
0.0
  0
VERTEX
  5
2B8D
  8
0
 10
886.0
 20
372.999451
 30
0.0
  0
SEQEND
  5
2E25
  8
0
  0
INSERT
  5
7E6
  8
0
  6
CONTINUOUS
 62
     0
  2
*X87
 10
0.0
 20
0.0
 30
0.0
1001
ACAD
1000
HATCH
1002
{
1070
    19
1000
ANSI31
1040
2.0
1040
0.0
1000
R14_HATCH_DATA
1000
7E6
1011
1.0
1021
0.0
1031
0.0
1021
0.0
1031
0.0
1011
0.0
1021
1.0
1031
0.0
1021
1.0
1031
0.0
1011
0.0
1021
0.0
1031
1.0
1021
0.0
1031
1.0
1040
0.0
1010
0.0
1020
0.0
1030
1.0
1000
ANSI31
1070
     0
1070
     1
1071
        1
1071
        1
1071
        4
1070
     1
1040
886.0
1040
334.499451
1040
834.0
1040
334.499451
1070
     1
1040
834.0
1040
334.499451
1040
834.0
1040
332.999451
1070
     1
1040
834.0
1040
332.999451
1040
886.0
1040
332.999451
1070
     1
1040
886.0
1040
332.999451
1040
886.0
1040
334.499451
1071
        0
1070
     1
1070
     1
1040
0.0
1040
2.0
1070
     0
1070
     1
1040
0.785398
1040
1123.823502
1040
1266.605606
1040
-4.490128
1040
4.490128
1070
     0
1071
        1
1040
837.916977
1040
333.372757
1040
0.0
1002
}
  0
POLYLINE
  5
7E7
  8
0
 66
     1
 10
0.0
 20
0.0
 30
0.0
  0
VERTEX
  5
2B95
  8
0
 10
886.0
 20
332.999451
 30
0.0
  0
VERTEX
  5
2B96
  8
0
 10
834.0
 20
332.999451
 30
0.0
  0
SEQEND
  5
2E26
  8
0
  0
POLYLINE
  5
7E8
  8
0
 66
     1
 10
0.0
 20
0.0
 30
0.0
  0
VERTEX
  5
2B97
  8
0
 10
834.0
 20
371.499451
 30
0.0
  0
VERTEX
  5
2B98
  8
0
 10
886.0
 20
371.499451
 30
0.0
  0
SEQEND
  5
2E27
  8
0
  0
POLYLINE
  5
7E9
  8
0
 66
     1
 10
0.0
 20
0.0
 30
0.0
  0
VERTEX
  5
2B99
  8
0
 10
886.0
 20
334.499451
 30
0.0
  0
VERTEX
  5
2B9A
  8
0
 10
834.0
 20
334.499451
 30
0.0
  0
SEQEND
  5
2E28
  8
0
  0
POLYLINE
  5
7EE
  8
0
 66
     1
 10
0.0
 20
0.0
 30
0.0
  0
VERTEX
  5
2B9B
  8
0
 10
720.0
 20
331.499451
 30
0.0
  0
VERTEX
  5
2B9C
  8
0
 10
720.0
 20
326.999451
 30
0.0
  0
VERTEX
  5
2B9D
  8
0
 10
829.0
 20
326.999451
 30
0.0
  0
SEQEND
  5
2E29
  8
0
  0
LINE
  5
7EF
  8
0
 10
834.0
 20
326.999451
 30
0.0
 11
886.0
 21
326.999451
 31
0.0
  0
LINE
  5
7F0
  8
0
 10
760.0
 20
426.999451
 30
0.0
 11
829.0
 21
426.999451
 31
0.0
  0
LINE
  5
7F1
  8
0
 10
834.0
 20
426.999451
 30
0.0
 11
886.0
 21
426.999451
 31
0.0
  0
INSERT
  5
7F2
  8
0
  6
CONTINUOUS
 62
     0
  2
*X88
 10
0.0
 20
0.0
 30
0.0
1001
ACAD
1000
HATCH
1002
{
1070
    19
1000
ANSI31
1040
2.0
1040
0.0
1000
R14_HATCH_DATA
1000
7F2
1011
1.0
1021
0.0
1031
0.0
1021
0.0
1031
0.0
1011
0.0
1021
1.0
1031
0.0
1021
1.0
1031
0.0
1011
0.0
1021
0.0
1031
1.0
1021
0.0
1031
1.0
1040
0.0
1010
0.0
1020
0.0
1030
1.0
1000
ANSI31
1070
     0
1070
     1
1071
        1
1071
        1
1071
        9
1070
     1
1040
970.0
1040
334.499451
1040
970.0
1040
352.999451
1070
     1
1040
970.0
1040
352.999451
1040
968.5
1040
352.999451
1070
     1
1040
968.5
1040
352.999451
1040
968.5
1040
336.499451
1070
     1
1040
968.5
1040
336.499451
1040
968.5
1040
334.499451
1070
     1
1040
968.5
1040
334.499451
1040
891.0
1040
334.499451
1070
     1
1040
891.0
1040
334.499451
1040
891.0
1040
332.999451
1070
     1
1040
891.0
1040
332.999451
1040
965.0
1040
332.999451
1070
     1
1040
965.0
1040
332.999451
1040
968.5
1040
332.999451
1070
     2
1040
968.5
1040
334.499451
1040
1.5
1040
4.712389
1040
6.283185
1070
     1
1071
        0
1070
     1
1070
     1
1040
0.0
1040
2.0
1070
     0
1070
     1
1040
0.785398
1040
1128.823502
1040
1266.605606
1040
-4.490128
1040
4.490128
1070
     0
1071
        1
1040
966.995239
1040
334.111862
1040
0.0
1002
}
  0
POLYLINE
  5
7F3
  8
0
 66
     1
 10
0.0
 20
0.0
 30
0.0
  0
VERTEX
  5
2BAA
  8
0
 10
891.0
 20
334.499451
 30
0.0
  0
VERTEX
  5
2BAB
  8
0
 10
968.5
 20
334.499451
 30
0.0
  0
VERTEX
  5
2BAC
  8
0
 10
968.5
 20
352.999451
 30
0.0
  0
VERTEX
  5
2BAD
  8
0
 10
970.0
 20
352.999451
 30
0.0
  0
VERTEX
  5
2BAE
  8
0
 10
970.0
 20
334.499451
 30
0.0
 42
-0.414214
  0
VERTEX
  5
2BAF
  8
0
 10
968.5
 20
332.999451
 30
0.0
  0
VERTEX
  5
2BB0
  8
0
 10
891.0
 20
332.999451
 30
0.0
  0
VERTEX
  5
2BB1
  8
0
 10
891.0
 20
334.499451
 30
0.0
  0
SEQEND
  5
2E2A
  8
0
  0
INSERT
  5
7F4
  8
0
  6
CONTINUOUS
 62
     0
  2
*X89
 10
0.0
 20
0.0
 30
0.0
1001
ACAD
1000
HATCH
1002
{
1070
    19
1000
ANSI31
1040
2.0
1040
0.0
1000
R14_HATCH_DATA
1000
7F4
1011
1.0
1021
0.0
1031
0.0
1021
0.0
1031
0.0
1011
0.0
1021
1.0
1031
0.0
1021
1.0
1031
0.0
1011
0.0
1021
0.0
1031
1.0
1021
0.0
1031
1.0
1040
0.0
1010
0.0
1020
0.0
1030
1.0
1000
ANSI31
1070
     0
1070
     1
1071
        1
1071
        1
1071
        7
1070
     1
1040
968.5
1040
372.999451
1040
891.0
1040
372.999451
1070
     1
1040
891.0
1040
372.999451
1040
891.0
1040
371.499451
1070
     1
1040
891.0
1040
371.499451
1040
968.5
1040
371.499451
1070
     1
1040
968.5
1040
371.499451
1040
968.5
1040
352.999451
1070
     1
1040
968.5
1040
352.999451
1040
970.0
1040
352.999451
1070
     1
1040
970.0
1040
352.999451
1040
970.0
1040
371.499451
1070
     2
1040
968.5
1040
371.499451
1040
1.5
1040
0.0
1040
1.570796
1070
     1
1071
        0
1070
     1
1070
     1
1040
0.0
1040
2.0
1070
     0
1070
     1
1040
0.785398
1040
84.0
1040
22.999451
1040
-4.490128
1040
4.490128
1070
     0
1071
        1
1040
909.787537
1040
372.28009
1040
0.0
1002
}
  0
POLYLINE
  5
7F5
  8
0
 66
     1
 10
0.0
 20
0.0
 30
0.0
  0
VERTEX
  5
2BBE
  8
0
 10
891.0
 20
371.499451
 30
0.0
  0
VERTEX
  5
2BBF
  8
0
 10
968.5
 20
371.499451
 30
0.0
  0
VERTEX
  5
2BC0
  8
0
 10
968.5
 20
352.999451
 30
0.0
  0
VERTEX
  5
2BC1
  8
0
 10
970.0
 20
352.999451
 30
0.0
  0
VERTEX
  5
2BC2
  8
0
 10
970.0
 20
371.499451
 30
0.0
 42
0.414214
  0
VERTEX
  5
2BC3
  8
0
 10
968.5
 20
372.999451
 30
0.0
  0
VERTEX
  5
2BC4
  8
0
 10
891.0
 20
372.999451
 30
0.0
  0
VERTEX
  5
2BC5
  8
0
 10
891.0
 20
371.499451
 30
0.0
  0
SEQEND
  5
2E2B
  8
0
  0
LINE
  5
7F6
  8
0
 10
891.0
 20
426.999451
 30
0.0
 11
960.0
 21
426.999451
 31
0.0
  0
INSERT
  5
7F7
  8
0
 62
     0
  2
*X90
 10
0.0
 20
0.0
 30
0.0
1001
ACAD
1000
HATCH
1002
{
1070
    19
1000
ANSI31
1040
2.0
1040
0.0
1000
R14_HATCH_DATA
1000
7F7
1011
1.0
1021
0.0
1031
0.0
1021
0.0
1031
0.0
1011
0.0
1021
1.0
1031
0.0
1021
1.0
1031
0.0
1011
0.0
1021
0.0
1031
1.0
1021
0.0
1031
1.0
1040
0.0
1010
0.0
1020
0.0
1030
1.0
1000
ANSI31
1070
     0
1070
     1
1071
        3
1071
        7
1070
     1
1070
     1
1071
        7
1040
829.0
1040
372.999435
1040
0.0
1040
751.600006
1040
372.999435
1040
0.414214
1040
750.0
1040
371.399445
1040
0.0
1040
750.0
1040
352.999451
1040
0.0
1040
751.5
1040
352.999451
1040
0.0
1040
751.5
1040
371.499451
1040
0.0
1040
829.0
1040
371.499451
1040
0.0
1071
        0
1071
        7
1070
     1
1070
     1
1071
        7
1040
829.0
1040
334.499451
1040
0.0
1040
751.5
1040
334.499451
1040
0.0
1040
751.5
1040
352.999451
1040
0.0
1040
750.0
1040
352.999451
1040
0.0
1040
750.0
1040
334.599442
1040
0.414214
1040
751.600006
1040
332.999435
1040
0.0
1040
829.0
1040
332.999435
1040
0.0
1071
        0
1071
        9
1071
        4
1070
     1
1040
792.280548
1040
327.882782
1040
792.280548
1040
335.116115
1070
     1
1040
792.280548
1040
335.116119
1040
781.780548
1040
335.116119
1070
     1
1040
781.780548
1040
335.116119
1040
781.780548
1040
327.882786
1070
     1
1040
781.780548
1040
327.882782
1040
792.280548
1040
327.882782
1071
        0
1070
     1
1070
     1
1040
0.0
1040
2.0
1070
     0
1070
     1
1040
0.785398
1040
110.0
1040
22.999451
1040
-4.490128
1040
4.490128
1070
     0
1040
0.103718
1071
        2
1040
813.006821
1040
372.055908
1040
0.0
1040
815.912674
1040
333.680099
1040
0.0
1002
}
  0
INSERT
  5
7F8
  8
0
  6
CONTINUOUS
 62
     0
  2
*X91
 10
0.0
 20
0.0
 30
0.0
1001
ACAD
1000
HATCH
1002
{
1070
    19
1000
ANSI31
1040
2.0
1040
0.0
1000
R14_HATCH_DATA
1000
7F8
1011
1.0
1021
0.0
1031
0.0
1021
0.0
1031
0.0
1011
0.0
1021
1.0
1031
0.0
1021
1.0
1031
0.0
1011
0.0
1021
0.0
1031
1.0
1021
0.0
1031
1.0
1040
0.0
1010
0.0
1020
0.0
1030
1.0
1000
ANSI31
1070
     0
1070
     1
1071
        1
1071
        7
1070
     1
1070
     1
1071
       18
1040
961.5
1040
390.499451
1040
0.0
1040
961.5
1040
428.499451
1040
0.0
1040
998.5
1040
428.499451
1040
0.0
1040
998.5
1040
422.424316
1040
0.0
1040
999.699997
1040
423.499451
1040
0.0
1040
1000.0
1040
423.499451
1040
0.0
1040
1000.0
1040
428.499451
1040
0.414214
1040
998.5
1040
429.999451
1040
0.0
1040
961.5
1040
429.999451
1040
0.414214
1040
960.0
1040
428.499451
1040
0.0
1040
960.0
1040
379.499451
1040
0.414214
1040
961.5
1040
377.999451
1040
0.414214
1040
963.0
1040
379.499451
1040
0.0
1040
963.0
1040
390.499451
1040
0.0
1040
967.07515
1040
390.499451
1040
0.0
1040
967.550003
1040
391.029449
1040
0.0
1040
967.550003
1040
391.999451
1040
0.0
1040
963.0
1040
391.999451
1040
0.414214
1071
        0
1070
     1
1070
     1
1040
0.0
1040
2.0
1070
     0
1070
     1
1040
0.785398
1040
-1074.0
1040
12.999451
1040
-4.490128
1040
4.490128
1070
     0
1040
0.085363
1071
        1
1040
966.740753
1040
419.513855
1040
0.0
1002
}
  0
POLYLINE
  5
7F9
  8
0
 66
     1
 10
0.0
 20
0.0
 30
0.0
 70
     1
  0
VERTEX
  5
2BE9
  8
0
 10
974.5
 20
391.999451
 30
0.0
  0
VERTEX
  5
2BEA
  8
0
 10
963.0
 20
391.999451
 30
0.0
 42
0.414214
  0
VERTEX
  5
2BEB
  8
0
 10
961.5
 20
390.499451
 30
0.0
  0
VERTEX
  5
2BEC
  8
0
 10
961.5
 20
379.499451
 30
0.0
  0
VERTEX
  5
2BED
  8
0
 10
961.5
 20
428.499451
 30
0.0
  0
VERTEX
  5
2BEE
  8
0
 10
998.5
 20
428.499451
 30
0.0
  0
VERTEX
  5
2BEF
  8
0
 10
998.5
 20
414.999451
 30
0.0
  0
VERTEX
  5
2BF0
  8
0
 10
1000.0
 20
414.999451
 30
0.0
  0
VERTEX
  5
2BF1
  8
0
 10
1000.0
 20
428.499451
 30
0.0
 42
0.414214
  0
VERTEX
  5
2BF2
  8
0
 10
998.5
 20
429.999451
 30
0.0
  0
VERTEX
  5
2BF3
  8
0
 10
961.5
 20
429.999451
 30
0.0
 42
0.414214
  0
VERTEX
  5
2BF4
  8
0
 10
960.0
 20
428.499451
 30
0.0
  0
VERTEX
  5
2BF5
  8
0
 10
960.0
 20
379.499451
 30
0.0
 42
0.414214
  0
VERTEX
  5
2BF6
  8
0
 10
961.5
 20
377.999451
 30
0.0
  0
VERTEX
  5
2BF7
  8
0
 10
961.5
 20
377.999451
 30
0.0
 42
0.414214
  0
VERTEX
  5
2BF8
  8
0
 10
963.0
 20
379.499451
 30
0.0
  0
VERTEX
  5
2BF9
  8
0
 10
963.0
 20
390.499451
 30
0.0
  0
VERTEX
  5
2BFA
  8
0
 10
974.5
 20
390.499451
 30
0.0
  0
SEQEND
  5
2E2C
  8
0
  0
INSERT
  5
7FA
  8
0
  6
CONTINUOUS
 62
     0
  2
*X92
 10
0.0
 20
0.0
 30
0.0
1001
ACAD
1000
HATCH
1002
{
1070
    19
1000
ANSI31
1040
2.0
1040
0.0
1000
R14_HATCH_DATA
1000
7FA
1011
1.0
1021
0.0
1031
0.0
1021
0.0
1031
0.0
1011
0.0
1021
1.0
1031
0.0
1021
1.0
1031
0.0
1011
0.0
1021
0.0
1031
1.0
1021
0.0
1031
1.0
1040
0.0
1010
0.0
1020
0.0
1030
1.0
1000
ANSI31
1070
     0
1070
     1
1071
        1
1071
        1
1071
       16
1070
     1
1040
975.0
1040
390.499451
1040
970.924855
1040
390.499451
1070
     1
1040
970.92485
1040
390.499451
1040
971.999995
1040
389.299451
1070
     1
1040
972.0
1040
389.299454
1040
972.0
1040
388.999454
1070
     1
1040
972.0
1040
388.999451
1040
973.0
1040
388.999451
1070
     1
1040
973.0
1040
388.999451
1040
975.0
1040
388.999451
1070
     1
1040
975.0
1040
388.999451
1040
975.0
1040
331.499451
1070
     2
1040
976.5
1040
331.499451
1040
1.5
1040
3.141593
1040
4.712389
1070
     1
1070
     1
1040
976.5
1040
329.999451
1040
998.5
1040
329.999451
1070
     2
1040
998.5
1040
331.499451
1040
1.5
1040
4.712389
1040
6.283185
1070
     1
1070
     1
1040
1000.0
1040
331.499451
1040
1000.0
1040
344.999451
1070
     1
1040
1000.0
1040
344.999451
1040
998.5
1040
344.99945
1070
     1
1040
998.5
1040
344.999451
1040
998.5
1040
333.099451
1070
     1
1040
998.5
1040
333.099457
1040
998.5
1040
331.499457
1070
     1
1040
998.5
1040
331.499451
1040
976.5
1040
331.499451
1070
     1
1040
976.5
1040
331.499451
1040
976.5
1040
388.999451
1070
     2
1040
975.0
1040
388.999451
1040
1.5
1040
0.0
1040
1.570796
1070
     1
1071
        0
1070
     1
1070
     1
1040
0.0
1040
2.0
1070
     0
1070
     1
1040
0.785398
1040
-1074.0
1040
22.999451
1040
-4.490128
1040
4.490128
1070
     0
1071
        1
1040
974.521606
1040
389.705215
1040
0.0
1002
}
  0
POLYLINE
  5
7FB
  8
0
 66
     1
 10
0.0
 20
0.0
 30
0.0
 70
     1
  0
VERTEX
  5
2C08
  8
0
 10
963.5
 20
388.999451
 30
0.0
  0
VERTEX
  5
2C09
  8
0
 10
975.0
 20
388.999451
 30
0.0
  0
VERTEX
  5
2C0A
  8
0
 10
975.0
 20
331.499451
 30
0.0
 42
0.414214
  0
VERTEX
  5
2C0B
  8
0
 10
976.5
 20
329.999451
 30
0.0
  0
VERTEX
  5
2C0C
  8
0
 10
998.5
 20
329.999451
 30
0.0
 42
0.414214
  0
VERTEX
  5
2C0D
  8
0
 10
1000.0
 20
331.499451
 30
0.0
  0
VERTEX
  5
2C0E
  8
0
 10
1000.0
 20
344.999451
 30
0.0
  0
VERTEX
  5
2C0F
  8
0
 10
998.5
 20
344.999451
 30
0.0
  0
VERTEX
  5
2C10
  8
0
 10
998.5
 20
331.499451
 30
0.0
  0
VERTEX
  5
2C11
  8
0
 10
976.5
 20
331.499451
 30
0.0
  0
VERTEX
  5
2C12
  8
0
 10
976.5
 20
388.999451
 30
0.0
 42
0.414214
  0
VERTEX
  5
2C13
  8
0
 10
975.0
 20
390.499451
 30
0.0
  0
VERTEX
  5
2C14
  8
0
 10
963.5
 20
390.499451
 30
0.0
  0
SEQEND
  5
2E2D
  8
0
  0
INSERT
  5
7FC
  8
0
 62
     0
  2
*X93
 10
0.0
 20
0.0
 30
0.0
1001
ACAD
1000
HATCH
1002
{
1070
    19
1000
ANSI31
1040
2.0
1040
0.0
1000
R14_HATCH_DATA
1000
7FC
1011
1.0
1021
0.0
1031
0.0
1021
0.0
1031
0.0
1011
0.0
1021
1.0
1031
0.0
1021
1.0
1031
0.0
1011
0.0
1021
0.0
1031
1.0
1021
0.0
1031
1.0
1040
0.0
1010
0.0
1020
0.0
1030
1.0
1000
ANSI31
1070
     0
1070
     1
1071
        3
1071
        7
1070
     1
1070
     1
1071
       19
1040
758.5
1040
429.999451
1040
0.0
1040
721.5
1040
429.999451
1040
0.414214
1040
720.0
1040
428.499451
1040
0.0
1040
720.0
1040
423.699463
1040
0.0
1040
721.5
1040
422.574463
1040
0.0
1040
721.5
1040
425.499451
1040
0.0
1040
721.5
1040
428.499451
1040
0.0
1040
758.5
1040
428.499451
1040
0.0
1040
758.5
1040
390.499451
1040
0.414214
1040
757.0
1040
391.999451
1040
0.0
1040
753.0
1040
391.999451
1040
0.0
1040
753.0
1040
390.599457
1040
0.0
1040
753.074997
1040
390.499451
1040
0.0
1040
756.5
1040
390.499451
1040
0.0
1040
757.0
1040
390.499451
1040
0.0
1040
757.0
1040
379.499451
1040
0.414214
1040
758.5
1040
377.999451
1040
0.414214
1040
760.0
1040
379.499451
1040
0.0
1040
760.0
1040
428.499451
1040
0.414214
1071
        0
1071
       23
1070
     0
1070
     1
1071
        4
1040
721.5
1040
418.424454
1040
720.0
1040
417.299454
1040
720.0
1040
414.999451
1040
721.5
1040
414.999451
1071
        0
1071
       23
1070
     0
1070
     1
1071
        5
1040
749.0
1040
391.999451
1040
745.5
1040
391.999451
1040
745.5
1040
390.499451
1040
748.925003
1040
390.499451
1040
749.0
1040
390.599457
1071
        0
1070
     1
1070
     1
1040
0.0
1040
2.0
1070
     0
1070
     1
1040
0.785398
1040
110.0
1040
22.999451
1040
-4.490128
1040
4.490128
1070
     0
1040
0.065104
1071
        3
1040
725.202728
1040
429.599319
1040
0.0
1040
720.18573
1040
416.90152
1040
0.0
1040
746.467941
1040
391.378647
1040
0.0
1002
}
  0
POLYLINE
  5
7FD
  8
0
 66
     1
 10
0.0
 20
0.0
 30
0.0
 70
     1
  0
VERTEX
  5
2C23
  8
0
 10
745.5
 20
391.999451
 30
0.0
  0
VERTEX
  5
2C24
  8
0
 10
757.0
 20
391.999451
 30
0.0
 42
-0.414214
  0
VERTEX
  5
2C25
  8
0
 10
758.5
 20
390.499451
 30
0.0
  0
VERTEX
  5
2C26
  8
0
 10
758.5
 20
379.499451
 30
0.0
  0
VERTEX
  5
2C27
  8
0
 10
758.5
 20
428.499451
 30
0.0
  0
VERTEX
  5
2C28
  8
0
 10
721.5
 20
428.499451
 30
0.0
  0
VERTEX
  5
2C29
  8
0
 10
721.5
 20
414.999451
 30
0.0
  0
VERTEX
  5
2C2A
  8
0
 10
720.0
 20
414.999451
 30
0.0
  0
VERTEX
  5
2C2B
  8
0
 10
720.0
 20
428.499451
 30
0.0
 42
-0.414214
  0
VERTEX
  5
2C2C
  8
0
 10
721.5
 20
429.999451
 30
0.0
  0
VERTEX
  5
2C2D
  8
0
 10
758.5
 20
429.999451
 30
0.0
 42
-0.414214
  0
VERTEX
  5
2C2E
  8
0
 10
760.0
 20
428.499451
 30
0.0
  0
VERTEX
  5
2C2F
  8
0
 10
760.0
 20
379.499451
 30
0.0
 42
-0.414214
  0
VERTEX
  5
2C30
  8
0
 10
758.5
 20
377.999451
 30
0.0
  0
VERTEX
  5
2C31
  8
0
 10
758.5
 20
377.999451
 30
0.0
 42
-0.414214
  0
VERTEX
  5
2C32
  8
0
 10
757.0
 20
379.499451
 30
0.0
  0
VERTEX
  5
2C33
  8
0
 10
757.0
 20
390.499451
 30
0.0
  0
VERTEX
  5
2C34
  8
0
 10
745.5
 20
390.499451
 30
0.0
  0
SEQEND
  5
2E2E
  8
0
  0
INSERT
  5
7FE
  8
0
 62
     0
  2
*X94
 10
0.0
 20
0.0
 30
0.0
1001
ACAD
1000
HATCH
1002
{
1070
    19
1000
ANSI31
1040
2.0
1040
0.0
1000
R14_HATCH_DATA
1000
7FE
1011
1.0
1021
0.0
1031
0.0
1021
0.0
1031
0.0
1011
0.0
1021
1.0
1031
0.0
1021
1.0
1031
0.0
1011
0.0
1021
0.0
1031
1.0
1021
0.0
1031
1.0
1040
0.0
1010
0.0
1020
0.0
1030
1.0
1000
ANSI31
1070
     0
1070
     1
1071
        1
1071
        7
1070
     1
1070
     1
1071
       13
1040
745.0
1040
331.499451
1040
0.0
1040
745.0
1040
388.999451
1040
0.0
1040
747.800003
1040
388.999451
1040
0.0
1040
748.925003
1040
390.499451
1040
0.0
1040
745.0
1040
390.499451
1040
0.414214
1040
743.5
1040
388.999451
1040
0.0
1040
743.5
1040
331.499451
1040
0.0
1040
721.5
1040
331.499451
1040
0.0
1040
721.5
1040
337.424454
1040
0.0
1040
720.0
1040
336.299454
1040
0.0
1040
720.0
1040
331.499451
1040
0.414214
1040
721.5
1040
329.999451
1040
0.0
1040
743.5
1040
329.999451
1040
0.414214
1071
        0
1070
     1
1070
     1
1040
0.0
1040
2.0
1070
     0
1070
     1
1040
0.785398
1040
110.0
1040
22.999451
1040
-4.490128
1040
4.490128
1070
     0
1040
0.104174
1071
        1
1040
736.690109
1040
330.745789
1040
0.0
1002
}
  0
POLYLINE
  5
7FF
  8
0
 66
     1
 10
0.0
 20
0.0
 30
0.0
 70
     1
  0
VERTEX
  5
2C41
  8
0
 10
756.5
 20
388.999451
 30
0.0
  0
VERTEX
  5
2C42
  8
0
 10
745.0
 20
388.999451
 30
0.0
  0
VERTEX
  5
2C43
  8
0
 10
745.0
 20
331.499451
 30
0.0
 42
-0.414214
  0
VERTEX
  5
2C44
  8
0
 10
743.5
 20
329.999451
 30
0.0
  0
VERTEX
  5
2C45
  8
0
 10
721.5
 20
329.999451
 30
0.0
 42
-0.414214
  0
VERTEX
  5
2C46
  8
0
 10
720.0
 20
331.499451
 30
0.0
  0
VERTEX
  5
2C47
  8
0
 10
720.0
 20
344.999451
 30
0.0
  0
VERTEX
  5
2C48
  8
0
 10
721.5
 20
344.999451
 30
0.0
  0
VERTEX
  5
2C49
  8
0
 10
721.5
 20
331.499451
 30
0.0
  0
VERTEX
  5
2C4A
  8
0
 10
743.5
 20
331.499451
 30
0.0
  0
VERTEX
  5
2C4B
  8
0
 10
743.5
 20
388.999451
 30
0.0
 42
-0.414214
  0
VERTEX
  5
2C4C
  8
0
 10
745.0
 20
390.499451
 30
0.0
  0
VERTEX
  5
2C4D
  8
0
 10
756.5
 20
390.499451
 30
0.0
  0
SEQEND
  5
2E2F
  8
0
  0
LINE
  5
802
  8
0
 10
758.5
 20
377.999451
 30
0.0
 11
829.0
 21
377.999451
 31
0.0
  0
LINE
  5
803
  8
0
 10
834.0
 20
377.999451
 30
0.0
 11
886.0
 21
377.999451
 31
0.0
  0
LINE
  5
804
  8
0
 10
891.0
 20
377.999451
 30
0.0
 11
961.5
 21
377.999451
 31
0.0
  0
POLYLINE
  5
807
  8
0
 66
     1
 10
0.0
 20
0.0
 30
0.0
  0
VERTEX
  5
2C4E
  8
0
 10
829.0
 20
371.499451
 30
0.0
  0
VERTEX
  5
2C4F
  8
0
 10
751.5
 20
371.499451
 30
0.0
  0
VERTEX
  5
2C50
  8
0
 10
751.5
 20
352.999451
 30
0.0
  0
VERTEX
  5
2C51
  8
0
 10
750.0
 20
352.999451
 30
0.0
  0
VERTEX
  5
2C52
  8
0
 10
750.0
 20
371.399445
 30
0.0
 42
-0.414214
  0
VERTEX
  5
2C53
  8
0
 10
751.600006
 20
372.999435
 30
0.0
  0
VERTEX
  5
2C54
  8
0
 10
829.0
 20
372.999435
 30
0.0
  0
SEQEND
  5
2E30
  8
0
  0
POLYLINE
  5
808
  8
0
 66
     1
 10
0.0
 20
0.0
 30
0.0
  0
VERTEX
  5
2C55
  8
0
 10
829.0
 20
334.499451
 30
0.0
  0
VERTEX
  5
2C56
  8
0
 10
751.5
 20
334.499451
 30
0.0
  0
VERTEX
  5
2C57
  8
0
 10
751.5
 20
352.999451
 30
0.0
  0
VERTEX
  5
2C58
  8
0
 10
750.0
 20
352.999451
 30
0.0
  0
VERTEX
  5
2C59
  8
0
 10
750.0
 20
334.599442
 30
0.0
 42
0.414214
  0
VERTEX
  5
2C5A
  8
0
 10
751.600006
 20
332.999435
 30
0.0
  0
VERTEX
  5
2C5B
  8
0
 10
829.0
 20
332.999435
 30
0.0
  0
SEQEND
  5
2E31
  8
0
  0
POLYLINE
  5
809
  8
0
  6
CONTINUOUS
 66
     1
 10
0.0
 20
0.0
 30
0.0
 70
     1
  0
VERTEX
  5
2C5C
  8
0
  6
CONTINUOUS
 10
760.0
 20
220.000015
 30
0.0
  0
VERTEX
  5
2C5D
  8
0
  6
CONTINUOUS
 10
773.0
 20
207.000015
 30
0.0
  0
VERTEX
  5
2C5E
  8
0
  6
CONTINUOUS
 10
773.0
 20
233.000015
 30
0.0
  0
SEQEND
  5
2E32
  8
0
  6
CONTINUOUS
  0
POLYLINE
  5
80A
  8
0
  6
CONTINUOUS
 66
     1
 10
0.0
 20
0.0
 30
0.0
 70
     1
  0
VERTEX
  5
2C5F
  8
0
  6
CONTINUOUS
 10
959.999985
 20
220.000015
 30
0.0
  0
VERTEX
  5
2C60
  8
0
  6
CONTINUOUS
 10
946.999985
 20
207.000015
 30
0.0
  0
VERTEX
  5
2C61
  8
0
  6
CONTINUOUS
 10
946.999985
 20
233.000015
 30
0.0
  0
SEQEND
  5
2E33
  8
0
  6
CONTINUOUS
  0
LINE
  5
80F
  8
0
  6
CENTER2
 10
953.5
 20
348.999451
 30
0.0
 11
953.5
 21
295.999451
 31
0.0
  0
LINE
  5
815
  8
0
 10
977.0
 20
301.999451
 30
0.0
 11
964.0
 21
301.999451
 31
0.0
  0
LINE
  5
81B
  8
0
  6
CENTER2
 10
934.0
 20
320.995255
 30
0.0
 11
934.0
 21
350.457489
 31
0.0
  0
POLYLINE
  5
81F
  8
0
 66
     1
 10
0.0
 20
0.0
 30
0.0
 70
     1
  0
VERTEX
  5
2C62
  8
0
 10
978.0
 20
329.999451
 30
0.0
  0
VERTEX
  5
2C63
  8
0
 10
978.0
 20
326.999451
 30
0.0
  0
VERTEX
  5
2C64
  8
0
 10
997.0
 20
326.999451
 30
0.0
  0
VERTEX
  5
2C65
  8
0
 10
997.0
 20
329.999451
 30
0.0
  0
SEQEND
  5
2E34
  8
0
  0
LINE
  5
820
  8
0
  6
CENTER2
 10
1008.0
 20
311.499451
 30
0.0
 11
933.0
 21
311.499451
 31
0.0
  0
POLYLINE
  5
821
  8
0
 66
     1
 10
0.0
 20
0.0
 30
0.0
  0
VERTEX
  5
2C66
  8
0
 10
927.0
 20
326.999451
 30
0.0
  0
VERTEX
  5
2C67
  8
0
 10
941.0
 20
326.999451
 30
0.0
  0
VERTEX
  5
2C68
  8
0
 10
941.0
 20
326.699463
 30
0.0
  0
VERTEX
  5
2C69
  8
0
 10
927.0
 20
326.699463
 30
0.0
  0
VERTEX
  5
2C6A
  8
0
 10
927.0
 20
326.999451
 30
0.0
  0
VERTEX
  5
2C6B
  8
0
 10
927.0
 20
316.499451
 30
0.0
  0
VERTEX
  5
2C6C
  8
0
 10
941.0
 20
316.499451
 30
0.0
  0
VERTEX
  5
2C6D
  8
0
 10
941.0
 20
326.699463
 30
0.0
  0
VERTEX
  5
2C6E
  8
0
 10
934.0
 20
326.699463
 30
0.0
  0
VERTEX
  5
2C6F
  8
0
 10
927.0
 20
326.699463
 30
0.0
  0
VERTEX
  5
2C70
  8
0
 10
927.0
 20
316.499451
 30
0.0
  0
VERTEX
  5
2C71
  8
0
 10
926.0
 20
316.499451
 30
0.0
  0
VERTEX
  5
2C72
  8
0
 10
926.0
 20
315.499451
 30
0.0
  0
VERTEX
  5
2C73
  8
0
 10
942.0
 20
315.499451
 30
0.0
  0
VERTEX
  5
2C74
  8
0
 10
942.0
 20
316.499451
 30
0.0
  0
VERTEX
  5
2C75
  8
0
 10
926.0
 20
316.499451
 30
0.0
  0
VERTEX
  5
2C76
  8
0
 10
926.0
 20
315.499451
 30
0.0
  0
VERTEX
  5
2C77
  8
0
 10
925.0
 20
315.499451
 30
0.0
  0
VERTEX
  5
2C78
  8
0
 10
924.0
 20
314.499451
 30
0.0
  0
VERTEX
  5
2C79
  8
0
 10
924.0
 20
303.499451
 30
0.0
  0
VERTEX
  5
2C7A
  8
0
 10
925.0
 20
302.499451
 30
0.0
  0
VERTEX
  5
2C7B
  8
0
 10
944.0
 20
302.499451
 30
0.0
  0
VERTEX
  5
2C7C
  8
0
 10
944.0
 20
315.499451
 30
0.0
  0
VERTEX
  5
2C7D
  8
0
 10
942.0
 20
315.499451
 30
0.0
  0
VERTEX
  5
2C7E
  8
0
 10
944.0
 20
315.499451
 30
0.0
  0
VERTEX
  5
2C7F
  8
0
 10
944.0
 20
302.499451
 30
0.0
  0
VERTEX
  5
2C80
  8
0
 10
940.25
 20
302.499451
 30
0.0
  0
VERTEX
  5
2C81
  8
0
 10
940.25
 20
300.89946
 30
0.0
  0
VERTEX
  5
2C82
  8
0
 10
927.75
 20
300.89946
 30
0.0
  0
VERTEX
  5
2C83
  8
0
 10
927.75
 20
302.499451
 30
0.0
  0
VERTEX
  5
2C84
  8
0
 10
927.75
 20
300.89946
 30
0.0
  0
VERTEX
  5
2C85
  8
0
 10
928.226501
 20
300.89946
 30
0.0
  0
VERTEX
  5
2C86
  8
0
 10
928.226501
 20
296.146042
 30
0.0
  0
VERTEX
  5
2C87
  8
0
 10
929.0
 20
295.699463
 30
0.0
 42
0.061707
  0
VERTEX
  5
2C88
  8
0
 10
931.113251
 20
296.146042
 30
0.0
  0
VERTEX
  5
2C89
  8
0
 10
931.113251
 20
300.89946
 30
0.0
  0
VERTEX
  5
2C8A
  8
0
 10
931.113251
 20
296.146042
 30
0.0
 42
0.154701
  0
VERTEX
  5
2C8B
  8
0
 10
936.886749
 20
296.146042
 30
0.0
  0
VERTEX
  5
2C8C
  8
0
 10
936.886749
 20
300.89946
 30
0.0
  0
VERTEX
  5
2C8D
  8
0
 10
936.886749
 20
296.146042
 30
0.0
 42
0.060803
  0
VERTEX
  5
2C8E
  8
0
 10
939.0
 20
295.699463
 30
0.0
  0
VERTEX
  5
2C8F
  8
0
 10
939.773499
 20
296.146042
 30
0.0
  0
VERTEX
  5
2C90
  8
0
 10
939.773499
 20
300.89946
 30
0.0
  0
VERTEX
  5
2C91
  8
0
 10
939.773499
 20
296.146042
 30
0.0
  0
VERTEX
  5
2C92
  8
0
 10
939.0
 20
295.699463
 30
0.0
  0
VERTEX
  5
2C93
  8
0
 10
940.5
 20
295.699463
 30
0.0
  0
VERTEX
  5
2C94
  8
0
 10
940.5
 20
294.699463
 30
0.0
  0
VERTEX
  5
2C95
  8
0
 10
927.5
 20
294.699463
 30
0.0
  0
VERTEX
  5
2C96
  8
0
 10
927.5
 20
295.699463
 30
0.0
  0
VERTEX
  5
2C97
  8
0
 10
940.5
 20
295.699463
 30
0.0
  0
VERTEX
  5
2C98
  8
0
 10
940.5
 20
294.699463
 30
0.0
  0
VERTEX
  5
2C99
  8
0
 10
938.900024
 20
294.699448
 30
0.0
  0
VERTEX
  5
2C9A
  8
0
 10
936.886749
 20
294.223923
 30
0.0
  0
VERTEX
  5
2C9B
  8
0
 10
931.113281
 20
294.223938
 30
0.0
  0
VERTEX
  5
2C9C
  8
0
 10
929.100037
 20
294.699448
 30
0.0
  0
VERTEX
  5
2C9D
  8
0
 10
928.226517
 20
294.195129
 30
0.0
  0
VERTEX
  5
2C9E
  8
0
 10
928.226501
 20
290.203781
 30
0.0
  0
VERTEX
  5
2C9F
  8
0
 10
929.100021
 20
289.699463
 30
0.0
  0
VERTEX
  5
2CA0
  8
0
 10
931.113235
 20
290.174973
 30
0.0
 42
0.164723
  0
VERTEX
  5
2CA1
  8
0
 10
936.886749
 20
290.174988
 30
0.0
  0
VERTEX
  5
2CA2
  8
0
 10
938.900009
 20
289.699463
 30
0.0
  0
VERTEX
  5
2CA3
  8
0
 10
939.773483
 20
290.203781
 30
0.0
  0
VERTEX
  5
2CA4
  8
0
 10
939.773483
 20
294.195145
 30
0.0
  0
VERTEX
  5
2CA5
  8
0
 10
938.900055
 20
294.699463
 30
0.0
  0
VERTEX
  5
2CA6
  8
0
 10
936.88678
 20
294.223907
 30
0.0
  0
VERTEX
  5
2CA7
  8
0
 10
936.88678
 20
290.175003
 30
0.0
  0
VERTEX
  5
2CA8
  8
0
 10
936.886749
 20
294.223923
 30
0.0
 42
0.164729
  0
VERTEX
  5
2CA9
  8
0
 10
931.113235
 20
294.223938
 30
0.0
  0
VERTEX
  5
2CAA
  8
0
 10
931.113235
 20
290.174973
 30
0.0
  0
VERTEX
  5
2CAB
  8
0
 10
931.113281
 20
294.223938
 30
0.0
  0
VERTEX
  5
2CAC
  8
0
 10
929.100006
 20
294.699463
 30
0.0
  0
VERTEX
  5
2CAD
  8
0
 10
928.226517
 20
294.195129
 30
0.0
  0
VERTEX
  5
2CAE
  8
0
 10
928.226501
 20
290.203781
 30
0.0
  0
VERTEX
  5
2CAF
  8
0
 10
929.100021
 20
289.699463
 30
0.0
  0
VERTEX
  5
2CB0
  8
0
 10
938.900009
 20
289.699463
 30
0.0
  0
VERTEX
  5
2CB1
  8
0
 10
938.747482
 20
289.699463
 30
0.0
 42
0.412745
  0
VERTEX
  5
2CB2
  8
0
 10
938.249985
 20
289.199463
 30
0.0
  0
VERTEX
  5
2CB3
  8
0
 10
938.249985
 20
288.220428
 30
0.0
 42
-0.710816
  0
VERTEX
  5
2CB4
  8
0
 10
929.749985
 20
288.220428
 30
0.0
  0
VERTEX
  5
2CB5
  8
0
 10
929.749985
 20
289.199463
 30
0.0
 42
0.414214
  0
VERTEX
  5
2CB6
  8
0
 10
929.249985
 20
289.699463
 30
0.0
  0
VERTEX
  5
2CB7
  8
0
 10
929.100037
 20
289.699463
 30
0.0
 42
4.29475
  0
SEQEND
  5
2E35
  8
0
  0
POLYLINE
  5
822
  8
0
 66
     1
 10
0.0
 20
0.0
 30
0.0
  0
VERTEX
  5
2CB8
  8
0
 10
944.0
 20
332.999451
 30
0.0
  0
VERTEX
  5
2CB9
  8
0
 10
944.0
 20
301.999451
 30
0.0
  0
VERTEX
  5
2CBA
  8
0
 10
963.0
 20
301.999451
 30
0.0
  0
VERTEX
  5
2CBB
  8
0
 10
963.0
 20
332.999451
 30
0.0
  0
VERTEX
  5
2CBC
  8
0
 10
944.0
 20
332.999451
 30
0.0
  0
VERTEX
  5
2CBD
  8
0
 10
944.0
 20
318.499451
 30
0.0
  0
VERTEX
  5
2CBE
  8
0
 10
943.0
 20
318.499451
 30
0.0
  0
VERTEX
  5
2CBF
  8
0
 10
943.0
 20
301.999451
 30
0.0
 42
0.414214
  0
VERTEX
  5
2CC0
  8
0
 10
944.0
 20
300.999451
 30
0.0
  0
VERTEX
  5
2CC1
  8
0
 10
963.0
 20
300.999451
 30
0.0
 42
0.414214
  0
VERTEX
  5
2CC2
  8
0
 10
964.0
 20
301.999451
 30
0.0
  0
VERTEX
  5
2CC3
  8
0
 10
964.0
 20
326.999451
 30
0.0
  0
VERTEX
  5
2CC4
  8
0
 10
963.0
 20
326.999451
 30
0.0
  0
VERTEX
  5
2CC5
  8
0
 10
963.0
 20
303.999451
 30
0.0
  0
VERTEX
  5
2CC6
  8
0
 10
961.0
 20
301.999451
 30
0.0
  0
VERTEX
  5
2CC7
  8
0
 10
946.0
 20
301.999451
 30
0.0
  0
VERTEX
  5
2CC8
  8
0
 10
944.0
 20
303.999451
 30
0.0
  0
VERTEX
  5
2CC9
  8
0
 10
946.0
 20
301.999451
 30
0.0
  0
VERTEX
  5
2CCA
  8
0
 10
961.0
 20
301.999451
 30
0.0
  0
VERTEX
  5
2CCB
  8
0
 10
963.0
 20
303.999451
 30
0.0
  0
VERTEX
  5
2CCC
  8
0
 10
963.0
 20
326.999451
 30
0.0
  0
VERTEX
  5
2CCD
  8
0
 10
964.0
 20
326.999451
 30
0.0
  0
VERTEX
  5
2CCE
  8
0
 10
964.0
 20
325.499451
 30
0.0
  0
VERTEX
  5
2CCF
  8
0
 10
966.487396
 20
325.499451
 30
0.0
  0
VERTEX
  5
2CD0
  8
0
 10
966.800003
 20
325.186844
 30
0.0
  0
VERTEX
  5
2CD1
  8
0
 10
966.800003
 20
318.812057
 30
0.0
  0
VERTEX
  5
2CD2
  8
0
 10
966.487396
 20
318.499451
 30
0.0
  0
VERTEX
  5
2CD3
  8
0
 10
964.0
 20
318.499451
 30
0.0
  0
VERTEX
  5
2CD4
  8
0
 10
964.0
 20
321.999451
 30
0.0
  0
VERTEX
  5
2CD5
  8
0
 10
966.487396
 20
321.999451
 30
0.0
  0
VERTEX
  5
2CD6
  8
0
 10
966.799973
 20
319.999451
 30
0.0
  0
VERTEX
  5
2CD7
  8
0
 10
966.487396
 20
321.999451
 30
0.0
  0
VERTEX
  5
2CD8
  8
0
 10
966.799973
 20
323.999451
 30
0.0
  0
SEQEND
  5
2E36
  8
0
  0
POLYLINE
  5
823
  8
0
 66
     1
 10
0.0
 20
0.0
 30
0.0
  0
VERTEX
  5
2CD9
  8
0
 10
997.0
 20
329.999451
 30
0.0
  0
VERTEX
  5
2CDA
  8
0
 10
997.0
 20
301.999451
 30
0.0
  0
VERTEX
  5
2CDB
  8
0
 10
978.0
 20
301.999451
 30
0.0
  0
VERTEX
  5
2CDC
  8
0
 10
978.0
 20
329.999451
 30
0.0
  0
VERTEX
  5
2CDD
  8
0
 10
997.0
 20
329.999451
 30
0.0
  0
VERTEX
  5
2CDE
  8
0
 10
997.0
 20
318.499451
 30
0.0
  0
VERTEX
  5
2CDF
  8
0
 10
998.0
 20
318.499451
 30
0.0
  0
VERTEX
  5
2CE0
  8
0
 10
998.0
 20
301.999451
 30
0.0
 42
-0.414214
  0
VERTEX
  5
2CE1
  8
0
 10
997.0
 20
300.999451
 30
0.0
  0
VERTEX
  5
2CE2
  8
0
 10
978.0
 20
300.999451
 30
0.0
 42
-0.414214
  0
VERTEX
  5
2CE3
  8
0
 10
977.0
 20
301.999451
 30
0.0
  0
VERTEX
  5
2CE4
  8
0
 10
977.0
 20
326.999451
 30
0.0
  0
VERTEX
  5
2CE5
  8
0
 10
978.0
 20
326.999451
 30
0.0
  0
VERTEX
  5
2CE6
  8
0
 10
978.0
 20
303.999451
 30
0.0
  0
VERTEX
  5
2CE7
  8
0
 10
980.0
 20
301.999451
 30
0.0
  0
VERTEX
  5
2CE8
  8
0
 10
995.0
 20
301.999451
 30
0.0
  0
VERTEX
  5
2CE9
  8
0
 10
997.0
 20
303.999451
 30
0.0
  0
VERTEX
  5
2CEA
  8
0
 10
995.0
 20
301.999451
 30
0.0
  0
VERTEX
  5
2CEB
  8
0
 10
980.0
 20
301.999451
 30
0.0
  0
VERTEX
  5
2CEC
  8
0
 10
978.0
 20
303.999451
 30
0.0
  0
VERTEX
  5
2CED
  8
0
 10
978.0
 20
326.999451
 30
0.0
  0
VERTEX
  5
2CEE
  8
0
 10
977.0
 20
326.999451
 30
0.0
  0
VERTEX
  5
2CEF
  8
0
 10
977.0
 20
325.499451
 30
0.0
  0
VERTEX
  5
2CF0
  8
0
 10
974.512604
 20
325.499451
 30
0.0
  0
VERTEX
  5
2CF1
  8
0
 10
974.199997
 20
325.186844
 30
0.0
  0
VERTEX
  5
2CF2
  8
0
 10
974.199997
 20
318.812057
 30
0.0
  0
VERTEX
  5
2CF3
  8
0
 10
974.512604
 20
318.499451
 30
0.0
  0
VERTEX
  5
2CF4
  8
0
 10
977.0
 20
318.499451
 30
0.0
  0
VERTEX
  5
2CF5
  8
0
 10
977.0
 20
321.999451
 30
0.0
  0
VERTEX
  5
2CF6
  8
0
 10
974.512604
 20
321.999451
 30
0.0
  0
VERTEX
  5
2CF7
  8
0
 10
974.200027
 20
319.999451
 30
0.0
  0
VERTEX
  5
2CF8
  8
0
 10
974.512604
 20
321.999451
 30
0.0
  0
VERTEX
  5
2CF9
  8
0
 10
974.200027
 20
323.999451
 30
0.0
  0
SEQEND
  5
2E37
  8
0
  0
LINE
  5
824
  8
0
  6
CENTER2
 10
987.5
 20
345.999451
 30
0.0
 11
987.5
 21
295.999451
 31
0.0
  0
POLYLINE
  5
84D
  8
0
 66
     1
 10
0.0
 20
0.0
 30
0.0
  0
VERTEX
  5
2CFA
  8
0
 10
1000.0
 20
331.499451
 30
0.0
  0
VERTEX
  5
2CFB
  8
0
 10
1000.0
 20
326.999451
 30
0.0
  0
VERTEX
  5
2CFC
  8
0
 10
891.0
 20
326.999451
 30
0.0
  0
SEQEND
  5
2E38
  8
0
  0
DIMENSION
  5
84E
  8
0
  6
CONTINUOUS
  2
*D1
 10
1039.998535
 20
429.999451
 30
0.0
 11
1034.498535
 21
422.499451
 31
0.0
 70
    32
  3
ISO-25
 13
1020.0
 23
414.999451
 33
0.0
 14
1020.0
 24
429.999451
 34
0.0
 50
90.0
1001
ACAD
1000
DSTYLE
1002
{
1070
   144
1040
1.0
1070
    40
1040
2.0
1002
}
  0
DIMENSION
  5
84F
  8
0
  6
CONTINUOUS
  2
*D2
 10
680.0
 20
414.999451
 30
0.0
 11
674.5
 21
422.499451
 31
0.0
 70
    32
  3
ISO-25
 13
700.0
 23
429.999451
 33
0.0
 14
700.0
 24
414.999451
 34
0.0
 50
90.0
1001
ACAD
1000
DSTYLE
1002
{
1070
   144
1040
1.0
1070
    40
1040
2.0
1002
}
  0
DIMENSION
  5
850
  8
0
  6
CONTINUOUS
  2
*D3
 10
1000.0
 20
469.999451
 30
0.0
 11
980.0
 21
475.499451
 31
0.0
 70
    32
  3
ISO-25
 13
960.0
 23
449.999451
 33
0.0
 14
1000.0
 24
449.999451
 34
0.0
1001
ACAD
1000
DSTYLE
1002
{
1070
   144
1040
1.0
1070
    40
1040
2.0
1002
}
  0
DIMENSION
  5
851
  8
0
  6
CONTINUOUS
  2
*D4
 10
760.0
 20
469.999451
 30
0.0
 11
740.0
 21
475.499451
 31
0.0
 70
    32
  3
ISO-25
 13
720.0
 23
449.999451
 33
0.0
 14
760.0
 24
449.999451
 34
0.0
1001
ACAD
1000
DSTYLE
1002
{
1070
   144
1040
1.0
1070
    40
1040
2.0
1002
}
  0
DIMENSION
  5
855
  8
0
  6
CONTINUOUS
  2
*D5
 10
960.0
 20
220.0
 30
0.0
 11
992.5
 21
225.5
 31
0.0
 70
    32
  1
<>
  3
ISO-25
 13
1025.0
 23
280.0
 33
0.0
 14
960.0
 24
280.0
 34
0.0
 50
180.0
1001
ACAD
1000
DSTYLE
1002
{
1070
   144
1040
1.0
1070
    40
1040
2.0
1002
}
  0
DIMENSION
  5
856
  8
0
  6
CONTINUOUS
  2
*D6
 10
1039.998535
 20
344.999451
 30
0.0
 11
1034.498535
 21
337.499451
 31
0.0
 70
    32
  3
ISO-25
 13
1020.0
 23
329.999451
 33
0.0
 14
1020.0
 24
344.999451
 34
0.0
 50
90.0
1001
ACAD
1000
DSTYLE
1002
{
1070
   144
1040
1.0
1070
    40
1040
2.0
1002
}
  0
DIMENSION
  5
857
  8
0
  6
CONTINUOUS
  2
*D7
 10
999.999985
 20
240.000015
 30
0.0
 11
987.499985
 21
245.500015
 31
0.0
 70
    32
  3
ISO-25
 13
974.999985
 23
280.000015
 33
0.0
 14
999.999985
 24
280.000015
 34
0.0
1001
ACAD
1000
DSTYLE
1002
{
1070
   144
1040
1.0
1070
    40
1040
2.0
1002
}
  0
DIMENSION
  5
858
  8
0
  6
CONTINUOUS
  2
*D8
 10
974.999985
 20
240.000015
 30
0.0
 11
967.499992
 21
245.500015
 31
0.0
 70
    32
  3
ISO-25
 13
960.0
 23
280.000015
 33
0.0
 14
974.999985
 24
280.000015
 34
0.0
1001
ACAD
1000
DSTYLE
1002
{
1070
   144
1040
1.0
1070
    40
1040
2.0
1002
}
  0
DIMENSION
  5
859
  8
0
  6
CONTINUOUS
  2
*D9
 10
974.999985
 20
260.000015
 30
0.0
 11
972.499985
 21
265.500015
 31
0.0
 70
    32
  3
ISO-25
 13
969.999985
 23
280.000015
 33
0.0
 14
974.999985
 24
280.000015
 34
0.0
1001
ACAD
1000
DSTYLE
1002
{
1070
   144
1040
1.0
1070
    40
1040
2.0
1002
}
  0
DIMENSION
  5
85A
  8
0
  2
*D10
 10
745.0
 20
240.000015
 30
0.0
 11
752.5
 21
245.500015
 31
0.0
 70
    32
  3
ISO-25
 13
760.0
 23
280.000015
 33
0.0
 14
745.0
 24
280.000015
 34
0.0
 50
180.0
1001
ACAD
1000
DSTYLE
1002
{
1070
   144
1040
1.0
1070
    40
1040
2.0
1002
}
  0
DIMENSION
  5
85C
  8
0
  2
*D11
 10
960.0
 20
220.000015
 30
0.0
 11
860.0
 21
225.500015
 31
0.0
 70
    32
  1
W
  3
ISO-25
 13
760.0
 23
280.000015
 33
0.0
 14
960.0
 24
280.000015
 34
0.0
1001
ACAD
1000
DSTYLE
1002
{
1070
     7
1000
NONE
1070
     6
1000
NONE
1070
     5
1000

1070
   144
1040
1.0
1070
    40
1040
2.0
1070
   173
1070
     1
1002
}
  0
DIMENSION
  5
85D
  8
0
  2
*D12
 10
745.0
 20
260.000015
 30
0.0
 11
747.5
 21
265.500015
 31
0.0
 70
    32
  3
ISO-25
 13
750.0
 23
280.000015
 33
0.0
 14
745.0
 24
280.000015
 34
0.0
 50
180.0
1001
ACAD
1000
DSTYLE
1002
{
1070
   144
1040
1.0
1070
    40
1040
2.0
1002
}
  0
DIMENSION
  5
85F
  8
0
  2
*D13
 10
750.0
 20
260.000015
 30
0.0
 11
859.999992
 21
265.500015
 31
0.0
 70
    32
  1
DW
  3
ISO-25
 13
969.999985
 23
280.000015
 33
0.0
 14
750.0
 24
280.000015
 34
0.0
 50
180.0
1001
ACAD
1000
DSTYLE
1002
{
1070
   144
1040
1.0
1070
    40
1040
2.0
1002
}
  0
DIMENSION
  5
861
  8
0
  6
CONTINUOUS
  2
*D14
 10
760.0
 20
220.000015
 30
0.0
 11
727.5
 21
225.500015
 31
0.0
 70
    32
  1
<>
  3
ISO-25
 13
695.0
 23
280.000015
 33
0.0
 14
760.0
 24
280.000015
 34
0.0
1001
ACAD
1000
DSTYLE
1002
{
1070
   144
1040
1.0
1070
    40
1040
2.0
1002
}
  0
DIMENSION
  5
862
  8
0
  2
*D15
 10
745.0
 20
240.000015
 30
0.0
 11
732.5
 21
245.500015
 31
0.0
 70
    32
  3
ISO-25
 13
720.0
 23
280.000015
 33
0.0
 14
745.0
 24
280.000015
 34
0.0
 50
180.0
1001
ACAD
1000
DSTYLE
1002
{
1070
   144
1040
1.0
1070
    40
1040
2.0
1002
}
  0
DIMENSION
  5
863
  8
0
  6
CONTINUOUS
  2
*D16
 10
680.0
 20
329.999451
 30
0.0
 11
674.5
 21
337.499451
 31
0.0
 70
    32
  3
ISO-25
 13
700.0
 23
344.999451
 33
0.0
 14
700.0
 24
329.999451
 34
0.0
 50
90.0
1001
ACAD
1000
DSTYLE
1002
{
1070
   144
1040
1.0
1070
    40
1040
2.0
1002
}
  0
DIMENSION
  5
864
  8
0
  2
*D17
 10
270.0
 20
97.999451
 30
0.0
 11
248.5
 21
103.499451
 31
0.0
 70
    32
  3
ISO-25
 13
227.0
 23
117.999451
 33
0.0
 14
270.0
 24
117.999451
 34
0.0
1001
ACAD
1000
DSTYLE
1002
{
1070
   144
1040
1.0
1070
    40
1040
2.0
1002
}
  0
DIMENSION
  5
865
  8
0
  2
*D18
 10
385.0
 20
189.999451
 30
0.0
 11
379.5
 21
174.999451
 31
0.0
 70
    32
  3
ISO-25
 13
355.0
 23
159.999451
 33
0.0
 14
355.0
 24
189.999451
 34
0.0
 50
90.0
1001
ACAD
1000
DSTYLE
1002
{
1070
   144
1040
1.0
1070
    40
1040
2.0
1002
}
  0
DIMENSION
  5
866
  8
0
  6
CONTINUOUS
  2
*D19
 10
233.0
 20
249.999451
 30
0.0
 11
227.1
 21
255.499451
 31
0.0
 70
   160
  3
ISO-25
 13
230.0
 23
229.999451
 33
0.0
 14
233.0
 24
229.999451
 34
0.0
1001
ACAD
1000
DSTYLE
1002
{
1070
   144
1040
1.0
1070
    40
1040
2.0
1002
}
  0
DIMENSION
  5
867
  8
0
  6
CONTINUOUS
  2
*D20
 10
230.0
 20
249.999451
 30
0.0
 11
254.0
 21
255.499451
 31
0.0
 70
    32
  3
ISO-25
 13
278.0
 23
229.999451
 33
0.0
 14
230.0
 24
229.999451
 34
0.0
1001
ACAD
1000
DSTYLE
1002
{
1070
   144
1040
1.0
1070
    40
1040
2.0
1002
}
  0
DIMENSION
  5
868
  8
0
  6
CONTINUOUS
  2
*D21
 10
278.0
 20
249.999451
 30
0.0
 11
302.5
 21
255.499451
 31
0.0
 70
    32
  3
ISO-25
 13
327.0
 23
200.276825
 33
0.0
 14
278.0
 24
229.999451
 34
0.0
1001
ACAD
1000
DSTYLE
1002
{
1070
   144
1040
1.0
1070
    40
1040
2.0
1002
}
  0
DIMENSION
  5
869
  8
0
  6
CONTINUOUS
  2
*D22
 10
330.0
 20
249.999451
 30
0.0
 11
327.7
 21
255.499451
 31
0.0
 70
   160
  3
ISO-25
 13
327.0
 23
229.999451
 33
0.0
 14
330.0
 24
229.999451
 34
0.0
1001
ACAD
1000
DSTYLE
1002
{
1070
   144
1040
1.0
1070
    40
1040
2.0
1002
}
  0
DIMENSION
  5
86B
  8
0
  6
CONTINUOUS
  2
*D23
 10
203.0
 20
604.999405
 30
0.0
 11
218.0
 21
610.499405
 31
0.0
 70
    32
  3
ISO-25
 13
233.0
 23
584.999405
 33
0.0
 14
203.0
 24
584.999405
 34
0.0
1001
ACAD
1000
DSTYLE
1002
{
1070
   144
1040
1.0
1070
    40
1040
2.0
1002
}
  0
DIMENSION
  5
86C
  8
0
  6
CONTINUOUS
  2
*D24
 10
233.0
 20
604.999405
 30
0.0
 11
251.5
 21
610.499405
 31
0.0
 70
    32
  3
ISO-25
 13
270.0
 23
584.999405
 33
0.0
 14
233.0
 24
584.999405
 34
0.0
1001
ACAD
1000
DSTYLE
1002
{
1070
   144
1040
1.0
1070
    40
1040
2.0
1002
}
  0
DIMENSION
  5
86D
  8
0
  6
CONTINUOUS
  2
*D25
 10
327.0
 20
604.999405
 30
0.0
 11
319.5
 21
610.499405
 31
0.0
 70
    32
  3
ISO-25
 13
312.0
 23
584.999405
 33
0.0
 14
327.0
 24
584.999405
 34
0.0
1001
ACAD
1000
DSTYLE
1002
{
1070
   144
1040
1.0
1070
    40
1040
2.0
1002
}
  0
DIMENSION
  5
86E
  8
0
  6
CONTINUOUS
  2
*D26
 10
385.0
 20
489.999405
 30
0.0
 11
379.5
 21
509.999405
 31
0.0
 70
    32
  3
ISO-25
 13
355.0
 23
529.999405
 33
0.0
 14
355.0
 24
489.999405
 34
0.0
 50
90.0
1001
ACAD
1000
DSTYLE
1002
{
1070
   144
1040
1.0
1070
    40
1040
2.0
1002
}
  0
DIMENSION
  5
86F
  8
0
  6
CONTINUOUS
  2
*D27
 10
230.0
 20
450.059418
 30
0.0
 11
227.1
 21
455.559418
 31
0.0
 70
   160
  3
ISO-25
 13
233.0
 23
474.939438
 33
0.0
 14
230.0
 24
474.939438
 34
0.0
1001
ACAD
1000
DSTYLE
1002
{
1070
   144
1040
1.0
1070
    40
1040
2.0
1002
}
  0
DIMENSION
  5
870
  8
0
  6
CONTINUOUS
  2
*D28
 10
233.0
 20
450.059418
 30
0.0
 11
253.0
 21
455.559418
 31
0.0
 70
    32
  3
ISO-25
 13
273.0
 23
474.939438
 33
0.0
 14
233.0
 24
474.939438
 34
0.0
1001
ACAD
1000
DSTYLE
1002
{
1070
   144
1040
1.0
1070
    40
1040
2.0
1002
}
  0
DIMENSION
  5
871
  8
0
  6
CONTINUOUS
  2
*D29
 10
273.0
 20
450.059418
 30
0.0
 11
275.5
 21
455.559418
 31
0.0
 70
    32
  3
ISO-25
 13
278.0
 23
474.939438
 33
0.0
 14
273.0
 24
474.939438
 34
0.0
1001
ACAD
1000
DSTYLE
1002
{
1070
   144
1040
1.0
1070
    40
1040
2.0
1002
}
  0
DIMENSION
  5
872
  8
0
  6
CONTINUOUS
  2
*D30
 10
278.0
 20
450.059418
 30
0.0
 11
302.5
 21
455.559418
 31
0.0
 70
    32
  3
ISO-25
 13
327.0
 23
474.939438
 33
0.0
 14
278.0
 24
474.939438
 34
0.0
1001
ACAD
1000
DSTYLE
1002
{
1070
   144
1040
1.0
1070
    40
1040
2.0
1002
}
  0
DIMENSION
  5
873
  8
0
  6
CONTINUOUS
  2
*D31
 10
330.0
 20
429.999451
 30
0.0
 11
280.0
 21
435.499451
 31
0.0
 70
    32
  3
ISO-25
 13
230.0
 23
474.939438
 33
0.0
 14
330.0
 24
474.939438
 34
0.0
1001
ACAD
1000
DSTYLE
1002
{
1070
   144
1040
1.0
1070
    40
1040
2.0
1002
}
  0
DIMENSION
  5
874
  8
0
  6
CONTINUOUS
  2
*D32
 10
230.0
 20
429.999451
 30
0.0
 11
216.5
 21
435.499451
 31
0.0
 70
    32
  3
ISO-25
 13
203.0
 23
469.999451
 33
0.0
 14
230.0
 24
474.939438
 34
0.0
1001
ACAD
1000
DSTYLE
1002
{
1070
   144
1040
1.0
1070
    40
1040
2.0
1002
}
  0
DIMENSION
  5
875
  8
0
  6
CONTINUOUS
  2
*D33
 10
140.0
 20
489.999405
 30
0.0
 11
134.5
 21
534.999405
 31
0.0
 70
    32
  1
<>
  3
ISO-25
 13
190.0
 23
579.999405
 33
0.0
 14
190.0
 24
489.999405
 34
0.0
 50
90.0
1001
ACAD
1000
DSTYLE
1002
{
1070
   144
1040
1.0
1070
    40
1040
2.0
1002
}
  0
DIMENSION
  5
876
  8
0
  6
CONTINUOUS
  2
*D34
 10
155.0
 20
489.999405
 30
0.0
 11
149.5
 21
497.499405
 31
0.0
 70
    32
  3
ISO-25
 13
190.0
 23
504.999405
 33
0.0
 14
190.0
 24
489.999405
 34
0.0
 50
270.0
1001
ACAD
1000
DSTYLE
1002
{
1070
   144
1040
1.0
1070
    40
1040
2.0
1002
}
  0
DIMENSION
  5
878
  8
0
  6
CONTINUOUS
  2
*D35
 10
140.0
 20
189.999451
 30
0.0
 11
134.5
 21
339.999428
 31
0.0
 70
    32
  1
H
  3
ISO-25
 13
190.0
 23
489.999405
 33
0.0
 14
140.0
 24
189.999451
 34
0.0
 50
90.0
1001
ACAD
1000
DSTYLE
1002
{
1070
     7
1000
NONE
1070
     6
1000
NONE
1070
     5
1000

1070
   144
1040
1.0
1070
    40
1040
2.0
1070
   173
1070
     1
1002
}
  0
DIMENSION
  5
879
  8
0
  6
CONTINUOUS
  2
*D36
 10
170.0
 20
127.999451
 30
0.0
 11
164.5
 21
137.999451
 31
0.0
 70
    32
  3
ISO-25
 13
190.0
 23
147.999451
 33
0.0
 14
190.0
 24
127.999451
 34
0.0
 50
270.0
1001
ACAD
1000
DSTYLE
1002
{
1070
   144
1040
1.0
1070
    40
1040
2.0
1002
}
  0
DIMENSION
  5
87B
  8
0
  6
CONTINUOUS
  2
*D37
 10
170.0
 20
147.999451
 30
0.0
 11
164.5
 21
160.499451
 31
0.0
 70
    32
  3
ISO-25
 13
190.0
 23
172.999451
 33
0.0
 14
190.0
 24
147.999451
 34
0.0
 50
270.0
1001
ACAD
1000
DSTYLE
1002
{
1070
   144
1040
1.0
1070
    40
1040
2.0
1002
}
  0
DIMENSION
  5
87D
  8
0
  6
CONTINUOUS
  2
*D38
 10
170.0
 20
172.999451
 30
0.0
 11
164.5
 21
174.699451
 31
0.0
 70
   160
  3
ISO-25
 13
190.0
 23
177.999451
 33
0.0
 14
190.0
 24
172.999451
 34
0.0
 50
270.0
1001
ACAD
1000
DSTYLE
1002
{
1070
   144
1040
1.0
1070
    40
1040
2.0
1002
}
  0
DIMENSION
  5
87F
  8
0
  2
*D39
 10
170.0
 20
177.999451
 30
0.0
 11
164.5
 21
181.599451
 31
0.0
 70
   160
  3
ISO-25
 13
190.0
 23
183.999451
 33
0.0
 14
190.0
 24
177.999451
 34
0.0
 50
270.0
1001
ACAD
1000
DSTYLE
1002
{
1070
   144
1040
1.0
1070
    40
1040
2.0
1002
}
  0
DIMENSION
  5
881
  8
0
  6
CONTINUOUS
  2
*D40
 10
155.0
 20
529.999405
 30
0.0
 11
149.5
 21
534.999405
 31
0.0
 70
    32
  3
ISO-25
 13
190.0
 23
539.999405
 33
0.0
 14
190.0
 24
529.999405
 34
0.0
 50
270.0
1001
ACAD
1000
DSTYLE
1002
{
1070
   144
1040
1.0
1070
    40
1040
2.0
1002
}
  0
DIMENSION
  5
883
  8
0
  6
CONTINUOUS
  2
*D41
 10
155.0
 20
539.999405
 30
0.0
 11
149.5
 21
552.499405
 31
0.0
 70
    32
  3
ISO-25
 13
190.0
 23
564.999405
 33
0.0
 14
190.0
 24
539.999405
 34
0.0
 50
270.0
1001
ACAD
1000
DSTYLE
1002
{
1070
   144
1040
1.0
1070
    40
1040
2.0
1002
}
  0
DIMENSION
  5
885
  8
0
  2
*D42
 10
170.0
 20
500.999405
 30
0.0
 11
164.5
 21
502.399405
 31
0.0
 70
   160
  3
ISO-25
 13
190.0
 23
504.999405
 33
0.0
 14
190.0
 24
500.999405
 34
0.0
 50
270.0
1001
ACAD
1000
DSTYLE
1002
{
1070
   144
1040
1.0
1070
    40
1040
2.0
1002
}
  0
DIMENSION
  5
886
  8
0
  6
CONTINUOUS
  2
*D43
 10
155.0
 20
504.999405
 30
0.0
 11
149.5
 21
517.499405
 31
0.0
 70
    32
  3
ISO-25
 13
190.0
 23
529.999405
 33
0.0
 14
190.0
 24
504.999405
 34
0.0
 50
270.0
1001
ACAD
1000
DSTYLE
1002
{
1070
   144
1040
1.0
1070
    40
1040
2.0
1002
}
  0
DIMENSION
  5
887
  8
0
  2
*D44
 10
170.0
 20
183.999451
 30
0.0
 11
164.5
 21
342.499428
 31
0.0
 70
    32
  1
DH
  3
ISO-25
 13
190.0
 23
500.999405
 33
0.0
 14
190.0
 24
183.999451
 34
0.0
 50
270.0
1001
ACAD
1000
DSTYLE
1002
{
1070
   144
1040
1.0
1070
    40
1040
2.0
1002
}
  0
POLYLINE
  5
888
  8
0
 66
     1
 10
0.0
 20
0.0
 30
0.0
 70
     1
  0
VERTEX
  5
2CFD
  8
0
 10
924.0
 20
332.999451
 30
0.0
  0
VERTEX
  5
2CFE
  8
0
 10
963.0
 20
332.999451
 30
0.0
  0
VERTEX
  5
2CFF
  8
0
 10
963.0
 20
326.999451
 30
0.0
  0
VERTEX
  5
2D00
  8
0
 10
924.0
 20
326.999451
 30
0.0
  0
SEQEND
  5
2E39
  8
0
  0
LINE
  5
889
  8
0
  6
CONTINUOUS
 10
95.5
 20
89.999451
 30
0.0
 11
238.494034
 21
89.999451
 31
0.0
  0
LINE
  5
88A
  8
0
  6
CONTINUOUS
 10
238.494034
 20
89.999451
 30
0.0
 11
238.494034
 21
147.999451
 31
0.0
  0
INSERT
  5
88B
  8
0
 62
     0
  2
*X95
 10
0.0
 20
0.0
 30
0.0
1001
ACAD
1000
HATCH
1002
{
1070
    19
1000
ANSI31
1040
2.0
1040
0.0
1000
R14_HATCH_DATA
1000
88B
1011
1.0
1021
0.0
1031
0.0
1021
0.0
1031
0.0
1011
0.0
1021
1.0
1031
0.0
1021
1.0
1031
0.0
1011
0.0
1021
0.0
1031
1.0
1021
0.0
1031
1.0
1040
0.0
1010
0.0
1020
0.0
1030
1.0
1000
ANSI31
1070
     0
1070
     1
1071
        1
1071
        7
1070
     1
1070
     1
1071
        7
1040
272.987137
1040
334.999451
1040
0.0
1040
271.5
1040
334.999451
1040
0.0
1040
271.5
1040
185.499451
1040
0.0
1040
253.0
1040
185.499451
1040
0.0
1040
253.0
1040
183.999451
1040
0.0
1040
271.518082
1040
183.999451
1040
0.417026
1040
272.987137
1040
185.500931
1040
0.0
1071
        0
1070
     1
1070
     1
1040
0.0
1040
2.0
1070
     0
1070
     1
1040
0.785398
1040
0.0
1040
2520.0
1040
-4.490128
1040
4.490128
1070
     0
1040
0.046781
1071
        1
1040
289.30983
1040
332.818207
1040
0.0
1002
}
  0
POLYLINE
  5
88C
  8
0
  6
CONTINUOUS
 66
     1
 10
0.0
 20
0.0
 30
0.0
  0
VERTEX
  5
2D15
  8
0
  6
CONTINUOUS
 10
272.987137
 20
335.000916
 30
0.0
  0
VERTEX
  5
2D16
  8
0
  6
CONTINUOUS
 10
272.987137
 20
185.500931
 30
0.0
 42
-0.420619
  0
VERTEX
  5
2D17
  8
0
  6
CONTINUOUS
 10
271.5
 20
183.999451
 30
0.0
  0
VERTEX
  5
2D18
  8
0
  6
CONTINUOUS
 10
253.0
 20
183.999451
 30
0.0
  0
VERTEX
  5
2D19
  8
0
  6
CONTINUOUS
 10
253.0
 20
185.499451
 30
0.0
  0
VERTEX
  5
2D1A
  8
0
  6
CONTINUOUS
 10
271.5
 20
185.499451
 30
0.0
  0
VERTEX
  5
2D1B
  8
0
  6
CONTINUOUS
 10
271.5
 20
334.999451
 30
0.0
  0
SEQEND
  5
2E3A
  8
0
  6
CONTINUOUS
  0
INSERT
  5
88D
  8
0
 62
     0
  2
*X96
 10
0.0
 20
0.0
 30
0.0
1001
ACAD
1000
HATCH
1002
{
1070
    19
1000
ANSI31
1040
2.0
1040
0.0
1000
R14_HATCH_DATA
1000
88D
1011
1.0
1021
0.0
1031
0.0
1021
0.0
1031
0.0
1011
0.0
1021
1.0
1031
0.0
1021
1.0
1031
0.0
1011
0.0
1021
0.0
1031
1.0
1021
0.0
1031
1.0
1040
0.0
1010
0.0
1020
0.0
1030
1.0
1000
ANSI31
1070
     0
1070
     1
1071
        1
1071
        7
1070
     1
1070
     1
1071
        7
1040
273.0
1040
499.499405
1040
0.414214
1040
271.5
1040
500.999405
1040
0.0
1040
253.0
1040
500.999405
1040
0.0
1040
253.0
1040
499.499405
1040
0.0
1040
271.5
1040
499.499405
1040
0.0
1040
271.5
1040
339.999451
1040
0.0
1040
273.0
1040
339.999451
1040
0.0
1071
        0
1070
     1
1070
     1
1040
0.0
1040
2.0
1070
     0
1070
     1
1040
0.785398
1040
0.0
1040
2520.0
1040
-4.490128
1040
4.490128
1070
     0
1040
0.129073
1071
        1
1040
272.335114
1040
359.740982
1040
0.0
1002
}
  0
POLYLINE
  5
88E
  8
0
  6
CONTINUOUS
 66
     1
 10
0.0
 20
0.0
 30
0.0
  0
VERTEX
  5
2D32
  8
0
  6
CONTINUOUS
 10
271.5
 20
339.999451
 30
0.0
  0
VERTEX
  5
2D33
  8
0
  6
CONTINUOUS
 10
271.5
 20
499.499405
 30
0.0
  0
VERTEX
  5
2D34
  8
0
  6
CONTINUOUS
 10
253.0
 20
499.499405
 30
0.0
  0
VERTEX
  5
2D35
  8
0
  6
CONTINUOUS
 10
253.0
 20
500.999405
 30
0.0
  0
VERTEX
  5
2D36
  8
0
  6
CONTINUOUS
 10
271.5
 20
500.999405
 30
0.0
 42
-0.414214
  0
VERTEX
  5
2D37
  8
0
  6
CONTINUOUS
 10
273.0
 20
499.499405
 30
0.0
  0
VERTEX
  5
2D38
  8
0
  6
CONTINUOUS
 10
273.0
 20
339.999451
 30
0.0
  0
SEQEND
  5
2E3B
  8
0
  6
CONTINUOUS
  0
DIMENSION
  5
890
  8
0
  2
*D45
 10
790.028198
 20
377.999466
 30
0.0
 11
784.528198
 21
403.999466
 31
0.0
 70
    32
  3
ISO-25
 13
765.028198
 23
429.999466
 33
0.0
 14
765.028198
 24
377.999466
 34
0.0
 50
90.0
1001
ACAD_DSTYLE_DIMINSPECT
1070
   396
1000
100%
1070
   395
1000

1070
   394
1070
    33
1070
   393
1070
     0
1001
ACAD
1000
DSTYLE
1002
{
1070
   144
1040
1.0
1070
    40
1040
2.0
1002
}
  0
DIMENSION
  5
892
  8
0
  2
*D46
 10
790.028198
 20
332.999466
 30
0.0
 11
784.528198
 21
352.999466
 31
0.0
 70
    32
  3
ISO-25
 13
765.028198
 23
372.999466
 33
0.0
 14
765.028198
 24
332.999466
 34
0.0
 50
90.0
1001
ACAD_DSTYLE_DIMINSPECT
1070
   396
1000
100%
1070
   395
1000

1070
   394
1070
    33
1070
   393
1070
     0
1001
ACAD
1000
DSTYLE
1002
{
1070
   144
1040
1.0
1070
    40
1040
2.0
1002
}
  0
DIMENSION
  5
894
  8
0
  2
*D47
 10
790.028198
 20
329.999466
 30
0.0
 11
784.528198
 21
324.099466
 31
0.0
 70
   160
  3
ISO-25
 13
765.028198
 23
332.999466
 33
0.0
 14
765.028198
 24
329.999466
 34
0.0
 50
90.0
1001
ACAD_DSTYLE_DIMINSPECT
1070
   396
1000
100%
1070
   395
1000

1070
   394
1070
    33
1070
   393
1070
     0
1001
ACAD
1000
DSTYLE
1002
{
1070
   144
1040
1.0
1070
    40
1040
2.0
1002
}
  0
DIMENSION
  5
897
  8
0
  2
*D48
 10
805.028198
 20
329.999466
 30
0.0
 11
799.528198
 21
379.999466
 31
0.0
 70
    32
  3
ISO-25
 13
765.028198
 23
429.999466
 33
0.0
 14
765.028198
 24
329.999466
 34
0.0
 50
90.0
1001
ACAD_DSTYLE_DIMINSPECT
1070
   396
1000
100%
1070
   395
1000

1070
   394
1070
    33
1070
   393
1070
     0
1001
ACAD
1000
DSTYLE
1002
{
1070
   144
1040
1.0
1070
    40
1040
2.0
1002
}
  0
DIMENSION
  5
898
  8
0
  2
*D49
 10
790.028198
 20
372.999466
 30
0.0
 11
784.528198
 21
375.499466
 31
0.0
 70
    32
  3
ISO-25
 13
765.028198
 23
377.999466
 33
0.0
 14
765.028198
 24
372.999466
 34
0.0
 50
90.0
1001
ACAD_DSTYLE_DIMINSPECT
1070
   396
1000
100%
1070
   395
1000

1070
   394
1070
    33
1070
   393
1070
     0
1001
ACAD
1000
DSTYLE
1002
{
1070
   144
1040
1.0
1070
    40
1040
2.0
1002
}
  0
POLYLINE
  5
89A
  8
0
  6
CONTINUOUS
 66
     1
 10
0.0
 20
0.0
 30
0.0
 70
     1
  0
VERTEX
  5
2D39
  8
0
  6
CONTINUOUS
 10
90.0
 20
300.0
 30
0.0
  0
VERTEX
  5
2D3A
  8
0
  6
CONTINUOUS
 10
110.0
 20
300.0
 30
0.0
  0
VERTEX
  5
2D3B
  8
0
  6
CONTINUOUS
 10
110.0
 20
380.0
 30
0.0
  0
VERTEX
  5
2D3C
  8
0
  6
CONTINUOUS
 10
90.0
 20
380.0
 30
0.0
  0
SEQEND
  5
2E3C
  8
0
  6
CONTINUOUS
  0
POLYLINE
  5
89C
  8
0
  6
CONTINUOUS
 66
     1
 10
0.0
 20
0.0
 30
0.0
 70
     1
  0
VERTEX
  5
2D3D
  8
0
  6
CONTINUOUS
 10
390.0
 20
300.0
 30
0.0
  0
VERTEX
  5
2D3E
  8
0
  6
CONTINUOUS
 10
410.0
 20
300.0
 30
0.0
  0
VERTEX
  5
2D3F
  8
0
  6
CONTINUOUS
 10
410.0
 20
380.0
 30
0.0
  0
VERTEX
  5
2D40
  8
0
  6
CONTINUOUS
 10
390.0
 20
380.0
 30
0.0
  0
SEQEND
  5
2E3D
  8
0
  6
CONTINUOUS
  0
POLYLINE
  5
89E
  8
0
  6
CONTINUOUS
 66
     1
 10
0.0
 20
0.0
 30
0.0
 70
     1
  0
VERTEX
  5
2D41
  8
0
  6
CONTINUOUS
 10
820.0
 20
490.0
 30
0.0
  0
VERTEX
  5
2D42
  8
0
  6
CONTINUOUS
 10
900.0
 20
490.0
 30
0.0
  0
VERTEX
  5
2D43
  8
0
  6
CONTINUOUS
 10
900.0
 20
510.0
 30
0.0
  0
VERTEX
  5
2D44
  8
0
  6
CONTINUOUS
 10
820.0
 20
510.0
 30
0.0
  0
SEQEND
  5
2E3E
  8
0
  6
CONTINUOUS
  0
POLYLINE
  5
8A0
  8
0
  6
CONTINUOUS
 66
     1
 10
0.0
 20
0.0
 30
0.0
 70
     1
  0
VERTEX
  5
2D45
  8
0
  6
CONTINUOUS
 10
820.0
 20
150.0
 30
0.0
  0
VERTEX
  5
2D46
  8
0
  6
CONTINUOUS
 10
900.0
 20
150.0
 30
0.0
  0
VERTEX
  5
2D47
  8
0
  6
CONTINUOUS
 10
900.0
 20
170.0
 30
0.0
  0
VERTEX
  5
2D48
  8
0
  6
CONTINUOUS
 10
820.0
 20
170.0
 30
0.0
  0
SEQEND
  5
2E3F
  8
0
  6
CONTINUOUS
  0
DIMENSION
  5
8E1
  8
0
  2
*D50
 10
385.0
 20
192.999451
 30
0.0
 11
379.5
 21
196.499451
 31
0.0
 70
   160
  3
ISO-25
 13
355.0
 23
189.999451
 33
0.0
 14
355.0
 24
192.999451
 34
0.0
 50
90.0
1001
ACAD
1000
DSTYLE
1002
{
1070
   144
1040
1.0
1070
    40
1040
2.0
1002
}
  0
POLYLINE
  5
8E4
  8
0
  6
CONTINUOUS
 66
     1
 10
0.0
 20
0.0
 30
0.0
 70
     1
  0
VERTEX
  5
2D49
  8
0
  6
CONTINUOUS
 10
978.100006
 20
333.099457
 30
0.0
  0
VERTEX
  5
2D4A
  8
0
  6
CONTINUOUS
 10
996.899994
 20
333.099457
 30
0.0
  0
VERTEX
  5
2D4B
  8
0
  6
CONTINUOUS
 10
996.899994
 20
344.999451
 30
0.0
  0
VERTEX
  5
2D4C
  8
0
  6
CONTINUOUS
 10
998.5
 20
344.999451
 30
0.0
  0
VERTEX
  5
2D4D
  8
0
  6
CONTINUOUS
 10
998.5
 20
333.099457
 30
0.0
 42
-0.414214
  0
VERTEX
  5
2D4E
  8
0
  6
CONTINUOUS
 10
996.899994
 20
331.499451
 30
0.0
  0
VERTEX
  5
2D4F
  8
0
  6
CONTINUOUS
 10
978.100006
 20
331.499451
 30
0.0
 42
-0.414214
  0
VERTEX
  5
2D50
  8
0
  6
CONTINUOUS
 10
976.5
 20
333.099457
 30
0.0
  0
VERTEX
  5
2D51
  8
0
  6
CONTINUOUS
 10
976.5
 20
391.999451
 30
0.0
  0
VERTEX
  5
2D52
  8
0
  6
CONTINUOUS
 10
963.100006
 20
391.999451
 30
0.0
 42
-0.414214
  0
VERTEX
  5
2D53
  8
0
  6
CONTINUOUS
 10
961.5
 20
393.599457
 30
0.0
  0
VERTEX
  5
2D54
  8
0
  6
CONTINUOUS
 10
961.5
 20
426.89946
 30
0.0
 42
-0.414214
  0
VERTEX
  5
2D55
  8
0
  6
CONTINUOUS
 10
963.100006
 20
428.499451
 30
0.0
  0
VERTEX
  5
2D56
  8
0
  6
CONTINUOUS
 10
996.899994
 20
428.499451
 30
0.0
 42
-0.414214
  0
VERTEX
  5
2D57
  8
0
  6
CONTINUOUS
 10
998.5
 20
426.89946
 30
0.0
  0
VERTEX
  5
2D58
  8
0
  6
CONTINUOUS
 10
998.5
 20
414.999451
 30
0.0
  0
VERTEX
  5
2D59
  8
0
  6
CONTINUOUS
 10
996.899994
 20
414.999451
 30
0.0
  0
VERTEX
  5
2D5A
  8
0
  6
CONTINUOUS
 10
996.899994
 20
426.89946
 30
0.0
  0
VERTEX
  5
2D5B
  8
0
  6
CONTINUOUS
 10
963.100006
 20
426.89946
 30
0.0
  0
VERTEX
  5
2D5C
  8
0
  6
CONTINUOUS
 10
963.100006
 20
393.599457
 30
0.0
  0
VERTEX
  5
2D5D
  8
0
  6
CONTINUOUS
 10
976.5
 20
393.599457
 30
0.0
 42
-0.414214
  0
VERTEX
  5
2D5E
  8
0
  6
CONTINUOUS
 10
978.100006
 20
391.999451
 30
0.0
  0
SEQEND
  5
2E40
  8
0
  6
CONTINUOUS
  0
POLYLINE
  5
8E5
  8
0
  6
CENTER
 66
     1
 10
0.0
 20
0.0
 30
0.0
  0
VERTEX
  5
2D5F
  8
0
  6
CENTER
 10
978.100006
 20
363.39946
 30
0.0
  0
VERTEX
  5
2D60
  8
0
  6
CENTER
 10
996.899994
 20
333.099457
 30
0.0
  0
SEQEND
  5
2E41
  8
0
  6
CENTER
  0
POLYLINE
  5
8E6
  8
0
  6
CENTER
 66
     1
 10
0.0
 20
0.0
 30
0.0
  0
VERTEX
  5
2D61
  8
0
  6
CENTER
 10
996.899994
 20
363.39946
 30
0.0
  0
VERTEX
  5
2D62
  8
0
  6
CENTER
 10
978.100006
 20
333.099457
 30
0.0
  0
SEQEND
  5
2E42
  8
0
  6
CENTER
  0
POLYLINE
  5
8E7
  8
0
  6
HIDDEN
 66
     1
 10
0.0
 20
0.0
 30
0.0
 70
     1
  0
VERTEX
  5
2D63
  8
0
  6
HIDDEN
 10
996.899994
 20
344.999451
 30
0.0
  0
VERTEX
  5
2D64
  8
0
  6
HIDDEN
 10
996.899994
 20
363.39946
 30
0.0
  0
VERTEX
  5
2D65
  8
0
  6
HIDDEN
 10
978.100006
 20
363.39946
 30
0.0
  0
VERTEX
  5
2D66
  8
0
  6
HIDDEN
 10
978.100006
 20
364.999451
 30
0.0
  0
VERTEX
  5
2D67
  8
0
  6
HIDDEN
 10
996.899994
 20
364.999451
 30
0.0
 42
-0.414214
  0
VERTEX
  5
2D68
  8
0
  6
HIDDEN
 10
998.5
 20
363.39946
 30
0.0
  0
VERTEX
  5
2D69
  8
0
  6
HIDDEN
 10
998.5
 20
344.999451
 30
0.0
  0
SEQEND
  5
2E43
  8
0
  6
HIDDEN
  0
POLYLINE
  5
8E8
  8
0
  6
HIDDEN
 66
     1
 10
0.0
 20
0.0
 30
0.0
 70
     1
  0
VERTEX
  5
2D6A
  8
0
  6
HIDDEN
 10
995.300003
 20
349.999451
 30
0.0
 42
-0.414214
  0
VERTEX
  5
2D6B
  8
0
  6
HIDDEN
 10
996.899994
 20
348.39946
 30
0.0
  0
VERTEX
  5
2D6C
  8
0
  6
HIDDEN
 10
996.899994
 20
333.099457
 30
0.0
  0
VERTEX
  5
2D6D
  8
0
  6
HIDDEN
 10
995.300003
 20
333.099457
 30
0.0
  0
VERTEX
  5
2D6E
  8
0
  6
HIDDEN
 10
995.300003
 20
348.39946
 30
0.0
  0
VERTEX
  5
2D6F
  8
0
  6
HIDDEN
 10
978.100006
 20
348.39946
 30
0.0
  0
VERTEX
  5
2D70
  8
0
  6
HIDDEN
 10
978.100006
 20
349.999451
 30
0.0
  0
SEQEND
  5
2E44
  8
0
  6
HIDDEN
  0
POLYLINE
  5
8E9
  8
0
  6
HIDDEN
 66
     1
 10
0.0
 20
0.0
 30
0.0
 70
     1
  0
VERTEX
  5
2D71
  8
0
  6
HIDDEN
 10
986.899994
 20
372.299454
 30
0.0
  0
VERTEX
  5
2D72
  8
0
  6
HIDDEN
 10
994.600006
 20
372.299454
 30
0.0
  0
VERTEX
  5
2D73
  8
0
  6
HIDDEN
 10
994.600006
 20
425.066971
 30
0.0
  0
VERTEX
  5
2D74
  8
0
  6
HIDDEN
 10
996.899994
 20
425.066971
 30
0.0
  0
VERTEX
  5
2D75
  8
0
  6
HIDDEN
 10
996.899994
 20
372.299454
 30
0.0
 42
-0.414214
  0
VERTEX
  5
2D76
  8
0
  6
HIDDEN
 10
994.600006
 20
369.999451
 30
0.0
  0
VERTEX
  5
2D77
  8
0
  6
HIDDEN
 10
986.899994
 20
369.999451
 30
0.0
  0
SEQEND
  5
2E45
  8
0
  6
HIDDEN
  0
POLYLINE
  5
8EA
  8
0
  6
HIDDEN
 66
     1
 10
0.0
 20
0.0
 30
0.0
 70
     1
  0
VERTEX
  5
2D78
  8
0
  6
HIDDEN
 10
1004.600006
 20
364.999451
 30
0.0
  0
VERTEX
  5
2D79
  8
0
  6
HIDDEN
 10
996.899994
 20
364.999451
 30
0.0
 42
0.414214
  0
VERTEX
  5
2D7A
  8
0
  6
HIDDEN
 10
994.600006
 20
362.699463
 30
0.0
  0
VERTEX
  5
2D7B
  8
0
  6
HIDDEN
 10
994.600006
 20
334.222824
 30
0.0
  0
VERTEX
  5
2D7C
  8
0
  6
HIDDEN
 10
996.899994
 20
334.222824
 30
0.0
  0
VERTEX
  5
2D7D
  8
0
  6
HIDDEN
 10
996.899994
 20
362.699463
 30
0.0
  0
VERTEX
  5
2D7E
  8
0
  6
HIDDEN
 10
1004.600006
 20
362.699463
 30
0.0
  0
SEQEND
  5
2E46
  8
0
  6
HIDDEN
  0
POLYLINE
  5
8EB
  8
0
 66
     1
 10
0.0
 20
0.0
 30
0.0
 70
     1
  0
VERTEX
  5
2D7F
  8
0
 10
978.100006
 20
364.999451
 30
0.0
  0
VERTEX
  5
2D80
  8
0
 10
978.100006
 20
404.999451
 30
0.0
  0
VERTEX
  5
2D81
  8
0
 10
980.100006
 20
404.999451
 30
0.0
 42
-0.414214
  0
VERTEX
  5
2D82
  8
0
 10
983.100006
 20
401.999451
 30
0.0
  0
VERTEX
  5
2D83
  8
0
 10
983.100006
 20
374.499451
 30
0.0
 42
0.414214
  0
VERTEX
  5
2D84
  8
0
 10
987.600006
 20
369.999451
 30
0.0
  0
VERTEX
  5
2D85
  8
0
 10
1015.100006
 20
369.999451
 30
0.0
 42
-0.414214
  0
VERTEX
  5
2D86
  8
0
 10
1018.100006
 20
366.999451
 30
0.0
  0
VERTEX
  5
2D87
  8
0
 10
1018.100006
 20
364.999451
 30
0.0
  0
SEQEND
  5
2E47
  8
0
  0
POLYLINE
  5
8EC
  8
0
  6
CONTINUOUS
 66
     1
 10
0.0
 20
0.0
 30
0.0
 70
     1
  0
VERTEX
  5
2D88
  8
0
  6
CONTINUOUS
 10
741.899994
 20
333.099457
 30
0.0
  0
VERTEX
  5
2D89
  8
0
  6
CONTINUOUS
 10
723.099991
 20
333.099457
 30
0.0
  0
VERTEX
  5
2D8A
  8
0
  6
CONTINUOUS
 10
723.099991
 20
344.999451
 30
0.0
  0
VERTEX
  5
2D8B
  8
0
  6
CONTINUOUS
 10
721.499985
 20
344.999451
 30
0.0
  0
VERTEX
  5
2D8C
  8
0
  6
CONTINUOUS
 10
721.499985
 20
333.099457
 30
0.0
 42
0.414214
  0
VERTEX
  5
2D8D
  8
0
  6
CONTINUOUS
 10
723.099991
 20
331.499451
 30
0.0
  0
VERTEX
  5
2D8E
  8
0
  6
CONTINUOUS
 10
741.899994
 20
331.499451
 30
0.0
 42
0.414214
  0
VERTEX
  5
2D8F
  8
0
  6
CONTINUOUS
 10
743.499985
 20
333.099457
 30
0.0
  0
VERTEX
  5
2D90
  8
0
  6
CONTINUOUS
 10
743.499985
 20
391.999451
 30
0.0
  0
VERTEX
  5
2D91
  8
0
  6
CONTINUOUS
 10
756.899994
 20
391.999451
 30
0.0
 42
0.414214
  0
VERTEX
  5
2D92
  8
0
  6
CONTINUOUS
 10
758.499985
 20
393.599457
 30
0.0
  0
VERTEX
  5
2D93
  8
0
  6
CONTINUOUS
 10
758.499985
 20
426.89946
 30
0.0
 42
0.414214
  0
VERTEX
  5
2D94
  8
0
  6
CONTINUOUS
 10
756.899994
 20
428.499451
 30
0.0
  0
VERTEX
  5
2D95
  8
0
  6
CONTINUOUS
 10
723.099991
 20
428.499451
 30
0.0
 42
0.414214
  0
VERTEX
  5
2D96
  8
0
  6
CONTINUOUS
 10
721.499985
 20
426.89946
 30
0.0
  0
VERTEX
  5
2D97
  8
0
  6
CONTINUOUS
 10
721.499985
 20
414.999451
 30
0.0
  0
VERTEX
  5
2D98
  8
0
  6
CONTINUOUS
 10
723.099991
 20
414.999451
 30
0.0
  0
VERTEX
  5
2D99
  8
0
  6
CONTINUOUS
 10
723.099991
 20
426.89946
 30
0.0
  0
VERTEX
  5
2D9A
  8
0
  6
CONTINUOUS
 10
756.899994
 20
426.89946
 30
0.0
  0
VERTEX
  5
2D9B
  8
0
  6
CONTINUOUS
 10
756.899994
 20
393.599457
 30
0.0
  0
VERTEX
  5
2D9C
  8
0
  6
CONTINUOUS
 10
743.499985
 20
393.599457
 30
0.0
 42
0.414214
  0
VERTEX
  5
2D9D
  8
0
  6
CONTINUOUS
 10
741.899994
 20
391.999451
 30
0.0
  0
SEQEND
  5
2E48
  8
0
  6
CONTINUOUS
  0
POLYLINE
  5
8ED
  8
0
  6
HIDDEN
 66
     1
 10
0.0
 20
0.0
 30
0.0
 70
     1
  0
VERTEX
  5
2D9E
  8
0
  6
HIDDEN
 10
733.099991
 20
372.299454
 30
0.0
  0
VERTEX
  5
2D9F
  8
0
  6
HIDDEN
 10
725.399994
 20
372.299454
 30
0.0
  0
VERTEX
  5
2DA0
  8
0
  6
HIDDEN
 10
725.399994
 20
425.066971
 30
0.0
  0
VERTEX
  5
2DA1
  8
0
  6
HIDDEN
 10
723.099991
 20
425.066971
 30
0.0
  0
VERTEX
  5
2DA2
  8
0
  6
HIDDEN
 10
723.099991
 20
372.299454
 30
0.0
 42
0.414214
  0
VERTEX
  5
2DA3
  8
0
  6
HIDDEN
 10
725.399994
 20
369.999451
 30
0.0
  0
VERTEX
  5
2DA4
  8
0
  6
HIDDEN
 10
733.099991
 20
369.999451
 30
0.0
  0
SEQEND
  5
2E49
  8
0
  6
HIDDEN
  0
POLYLINE
  5
8EE
  8
0
  6
HIDDEN
 66
     1
 10
0.0
 20
0.0
 30
0.0
 70
     1
  0
VERTEX
  5
2DA5
  8
0
  6
HIDDEN
 10
715.399994
 20
364.999451
 30
0.0
  0
VERTEX
  5
2DA6
  8
0
  6
HIDDEN
 10
723.099991
 20
364.999451
 30
0.0
 42
-0.414214
  0
VERTEX
  5
2DA7
  8
0
  6
HIDDEN
 10
725.399994
 20
362.699463
 30
0.0
  0
VERTEX
  5
2DA8
  8
0
  6
HIDDEN
 10
725.399994
 20
334.222824
 30
0.0
  0
VERTEX
  5
2DA9
  8
0
  6
HIDDEN
 10
723.099991
 20
334.222824
 30
0.0
  0
VERTEX
  5
2DAA
  8
0
  6
HIDDEN
 10
723.099991
 20
362.699463
 30
0.0
  0
VERTEX
  5
2DAB
  8
0
  6
HIDDEN
 10
715.399994
 20
362.699463
 30
0.0
  0
SEQEND
  5
2E4A
  8
0
  6
HIDDEN
  0
POLYLINE
  5
8EF
  8
0
 66
     1
 10
0.0
 20
0.0
 30
0.0
 70
     1
  0
VERTEX
  5
2DAC
  8
0
 10
741.899994
 20
364.999451
 30
0.0
  0
VERTEX
  5
2DAD
  8
0
 10
741.899994
 20
404.999451
 30
0.0
  0
VERTEX
  5
2DAE
  8
0
 10
739.899994
 20
404.999451
 30
0.0
 42
0.414214
  0
VERTEX
  5
2DAF
  8
0
 10
736.899994
 20
401.999451
 30
0.0
  0
VERTEX
  5
2DB0
  8
0
 10
736.899994
 20
374.499451
 30
0.0
 42
-0.414214
  0
VERTEX
  5
2DB1
  8
0
 10
732.399994
 20
369.999451
 30
0.0
  0
VERTEX
  5
2DB2
  8
0
 10
704.899994
 20
369.999451
 30
0.0
 42
0.414214
  0
VERTEX
  5
2DB3
  8
0
 10
701.899994
 20
366.999451
 30
0.0
  0
VERTEX
  5
2DB4
  8
0
 10
701.899994
 20
364.999451
 30
0.0
  0
SEQEND
  5
2E4B
  8
0
  0
TEXT
  5
F2C
  8
0
  6
CONTINUOUS
 10
868.25472
 20
45.437664
 30
0.0
 40
7.0
  1
アピアガード アピアS型ドア ステンレス仕様 2M
 41
0.8
  7
TEXT_T1
  0
TEXT
  5
F2D
  8
0
  6
CONTINUOUS
 10
868.628053
 20
32.704331
 30
0.0
 40
7.0
  1
片開き 一般25mm 外部 詳細図
 41
0.8
  7
TEXT_T1
  0
TEXT
  5
F2E
  8
0
  6
CONTINUOUS
 10
1075.274549
 20
789.738225
 30
0.0
 40
7.0
  1
1300030601
 41
0.8
  7
TEXT_T1
  0
INSERT
  5
14C6
  8
0
  2
*X97
 10
0.0
 20
0.0
 30
0.0
1001
ACAD
1000
HATCH
1002
{
1070
    19
1000
ANSI31
1040
1.0
1040
0.0
1000
R14_HATCH_DATA
1000
14C6
1011
1.0
1021
0.0
1031
0.0
1021
0.0
1031
0.0
1011
0.0
1021
1.0
1031
0.0
1021
1.0
1031
0.0
1011
0.0
1021
0.0
1031
1.0
1021
0.0
1031
1.0
1040
0.0
1010
0.0
1020
0.0
1030
1.0
1000
ANSI31
1070
     0
1070
     1
1071
        1
1071
        1
1071
        6
1070
     1
1040
963.0
1040
388.999451
1040
963.0
1040
378.899451
1070
     2
1040
968.900009
1040
378.899445
1040
5.9
1040
3.141593
1040
6.283185
1070
     1
1070
     1
1040
974.800003
1040
378.899445
1040
974.800003
1040
379.542819
1070
     2
1040
976.400009
1040
379.600494
1040
1.601039
1040
3.105568
1040
3.177617
1070
     0
1070
     1
1040
974.800003
1040
379.658157
1040
974.800003
1040
388.999454
1070
     1
1040
974.800003
1040
388.999451
1040
963.000003
1040
388.999451
1071
        0
1070
     1
1070
     1
1040
0.0
1040
1.0
1070
     0
1070
     1
1040
0.785398
1040
-0.199997
1040
19.999451
1040
-2.245064
1040
2.245064
1070
     0
1071
        1
1040
969.375931
1040
382.113159
1040
0.0
1002
}
  0
POLYLINE
  5
14C7
  8
0
 66
     1
 10
0.0
 20
0.0
 30
0.0
  0
VERTEX
  5
2DBB
  8
0
 10
974.800003
 20
378.899445
 30
0.0
  0
VERTEX
  5
2DBC
  8
0
 10
974.800003
 20
388.999451
 30
0.0
  0
VERTEX
  5
2DBD
  8
0
 10
963.0
 20
388.999451
 30
0.0
  0
VERTEX
  5
2DBE
  8
0
 10
963.0
 20
378.899445
 30
0.0
 42
1.0
  0
VERTEX
  5
2DBF
  8
0
 10
974.800003
 20
378.899445
 30
0.0
 42
2.705796
  0
SEQEND
  5
2E4C
  8
0
  0
INSERT
  5
14C8
  8
0
  2
*X98
 10
0.0
 20
0.0
 30
0.0
1001
ACAD
1000
HATCH
1002
{
1070
    19
1000
ANSI31
1040
1.0
1040
0.0
1000
R14_HATCH_DATA
1000
14C8
1011
1.0
1021
0.0
1031
0.0
1021
0.0
1031
0.0
1011
0.0
1021
1.0
1031
0.0
1021
1.0
1031
0.0
1011
0.0
1021
0.0
1031
1.0
1021
0.0
1031
1.0
1040
0.0
1010
0.0
1020
0.0
1030
1.0
1000
ANSI31
1070
     0
1070
     1
1071
        1
1071
        1
1071
        6
1070
     1
1040
745.199997
1040
388.999451
1040
745.199997
1040
378.899451
1070
     2
1040
751.099991
1040
378.899445
1040
5.9
1040
3.141593
1040
6.283185
1070
     1
1070
     1
1040
757.0
1040
378.899445
1040
757.0
1040
379.542819
1070
     2
1040
758.599991
1040
379.600494
1040
1.601039
1040
3.105568
1040
3.177617
1070
     0
1070
     1
1040
757.0
1040
379.658157
1040
757.0
1040
388.999454
1070
     1
1040
757.0
1040
388.999451
1040
745.2
1040
388.999451
1071
        0
1070
     1
1070
     1
1040
0.0
1040
1.0
1070
     0
1070
     1
1040
0.785398
1040
-218.0
1040
19.999451
1040
-2.245064
1040
2.245064
1070
     0
1071
        1
1040
751.575928
1040
382.113159
1040
0.0
1002
}
  0
POLYLINE
  5
14C9
  8
0
 66
     1
 10
0.0
 20
0.0
 30
0.0
  0
VERTEX
  5
2DC6
  8
0
 10
757.0
 20
378.899445
 30
0.0
  0
VERTEX
  5
2DC7
  8
0
 10
757.0
 20
388.999451
 30
0.0
  0
VERTEX
  5
2DC8
  8
0
 10
745.199997
 20
388.999451
 30
0.0
  0
VERTEX
  5
2DC9
  8
0
 10
745.199997
 20
378.899445
 30
0.0
 42
1.0
  0
VERTEX
  5
2DCA
  8
0
 10
757.0
 20
378.899445
 30
0.0
 42
2.705796
  0
SEQEND
  5
2E4D
  8
0
  0
INSERT
  5
14CA
  8
0
  2
*X99
 10
0.0
 20
0.0
 30
0.0
1001
ACAD
1000
HATCH
1002
{
1070
    19
1000
ANSI31
1040
1.0
1040
4.712389
1000
R14_HATCH_DATA
1000
14CA
1011
1.0
1021
0.0
1031
0.0
1021
0.0
1031
0.0
1011
0.0
1021
1.0
1031
0.0
1021
1.0
1031
0.0
1011
0.0
1021
0.0
1031
1.0
1021
0.0
1031
1.0
1040
0.0
1010
0.0
1020
0.0
1030
1.0
1000
ANSI31
1070
     0
1070
     1
1071
        1
1071
        1
1071
        6
1070
     1
1040
289.0
1040
504.999405
1040
278.9
1040
504.999405
1070
     2
1040
278.899994
1040
499.099411
1040
5.9
1040
1.570796
1040
4.712389
1070
     1
1070
     1
1040
278.899994
1040
493.199402
1040
279.543368
1040
493.199402
1070
     2
1040
279.601044
1040
491.599411
1040
1.601039
1040
4.676364
1040
4.748414
1070
     0
1070
     1
1040
279.658707
1040
493.199402
1040
289.000003
1040
493.199402
1070
     1
1040
289.0
1040
493.199402
1040
289.0
1040
504.999402
1071
        0
1070
     1
1070
     1
1040
4.712389
1040
1.0
1070
     0
1070
     1
1040
5.497787
1040
-80.0
1040
1468.199402
1040
2.245064
1040
2.245064
1070
     0
1071
        1
1040
282.113708
1040
498.623474
1040
0.0
1002
}
  0
POLYLINE
  5
14CB
  8
0
 66
     1
 10
0.0
 20
0.0
 30
0.0
  0
VERTEX
  5
2DD1
  8
0
 10
278.899994
 20
493.199402
 30
0.0
  0
VERTEX
  5
2DD2
  8
0
 10
289.0
 20
493.199402
 30
0.0
  0
VERTEX
  5
2DD3
  8
0
 10
289.0
 20
504.999405
 30
0.0
  0
VERTEX
  5
2DD4
  8
0
 10
278.899994
 20
504.999405
 30
0.0
 42
1.0
  0
VERTEX
  5
2DD5
  8
0
 10
278.899994
 20
493.199402
 30
0.0
 42
2.705796
  0
SEQEND
  5
2E4E
  8
0
  0
INSERT
  5
14CC
  8
0
  2
*X100
 10
0.0
 20
0.0
 30
0.0
1001
ACAD
1000
HATCH
1002
{
1070
    19
1000
ANSI31
1040
1.0
1040
0.0
1000
R14_HATCH_DATA
1000
14CC
1011
1.0
1021
0.0
1031
0.0
1021
0.0
1031
0.0
1011
0.0
1021
1.0
1031
0.0
1021
1.0
1031
0.0
1011
0.0
1021
0.0
1031
1.0
1021
0.0
1031
1.0
1040
0.0
1010
0.0
1020
0.0
1030
1.0
1000
ANSI31
1070
     0
1070
     1
1071
        1
1071
        1
1071
        5
1070
     1
1040
287.5
1040
189.999451
1040
278.8911
1040
189.999451
1070
     2
1040
278.991104
1040
183.999451
1040
6.000833
1040
1.587461
1040
4.695724
1070
     1
1070
     1
1040
278.891098
1040
177.999451
1040
279.649801
1040
177.999451
1070
     1
1040
279.649811
1040
177.999451
1040
287.500007
1040
177.999451
1070
     1
1040
287.5
1040
177.999451
1040
287.5
1040
189.999451
1071
        0
1070
     1
1070
     1
1040
0.0
1040
1.0
1070
     0
1070
     1
1040
0.785398
1040
-0.014023
1040
-15.000549
1040
-2.245064
1040
2.245064
1070
     0
1071
        1
1040
282.104813
1040
183.62352
1040
0.0
1002
}
  0
POLYLINE
  5
14CD
  8
0
 66
     1
 10
0.0
 20
0.0
 30
0.0
  0
VERTEX
  5
2DDD
  8
0
 10
278.891098
 20
177.999451
 30
0.0
  0
VERTEX
  5
2DDE
  8
0
 10
287.5
 20
177.999451
 30
0.0
  0
VERTEX
  5
2DDF
  8
0
 10
287.5
 20
189.999451
 30
0.0
  0
VERTEX
  5
2DE0
  8
0
 10
278.891098
 20
189.999451
 30
0.0
 42
0.983333
  0
VERTEX
  5
2DE1
  8
0
 10
278.891098
 20
177.999451
 30
0.0
 42
2.705796
  0
SEQEND
  5
2E4F
  8
0
  0
TEXT
  5
1507
  8
0
 10
100.0
 20
350.833333
 30
0.0
 40
10.0
  1
外部
 41
0.8
  7
TEXT_T1B
 72
     1
 11
100.0
 21
340.0
 31
0.0
  0
TEXT
  5
1541
  8
0
 10
400.0
 20
350.666667
 30
0.0
 40
10.0
  1
内部
 41
0.8
  7
TEXT_T1B
 72
     1
 11
400.0
 21
340.0
 31
0.0
  0
TEXT
  5
157A
  8
0
 10
850.8
 20
494.833333
 30
0.0
 40
10.0
  1
内部
 41
0.8
  7
TEXT_T1
 72
     4
 11
860.0
 21
500.0
 31
0.0
  0
TEXT
  5
15B3
  8
0
 10
851.2
 20
154.833333
 30
0.0
 40
10.0
  1
外部
 41
0.8
  7
TEXT_T1
 72
     4
 11
860.0
 21
160.0
 31
0.0
  0
TEXT
  5
1B95
  8
0
  6
CONTINUOUS
 10
58.666667
 20
35.0
 30
0.0
 40
10.0
  1
※大型サイズは別図参照
 41
0.8
  7
TEXT_T1
  0
DIMENSION
  5
1BCB
  8
0
  6
CONTINUOUS
  2
*D51
 10
330.0
 20
450.059418
 30
0.0
 11
332.5
 21
455.559418
 31
0.0
 70
   160
  3
ISO-25
 13
327.0
 23
474.939438
 33
0.0
 14
330.0
 24
474.939438
 34
0.0
1001
ACAD
1000
DSTYLE
1002
{
1070
   144
1040
1.0
1070
    40
1040
2.0
1002
}
  0
DIMENSION
  5
1BD8
  8
0
  6
CONTINUOUS
  2
*D52
 10
140.0
 20
177.999451
 30
0.0
 11
134.5
 21
183.999451
 31
0.0
 70
    32
  3
ISO-25
 13
190.0
 23
189.999451
 33
0.0
 14
190.0
 24
177.999451
 34
0.0
 50
270.0
1001
ACAD
1000
DSTYLE
1002
{
1070
   144
1040
1.0
1070
    40
1040
2.0
1002
}
  0
LINE
  5
1C08
  8
0
  6
CONTINUOUS
 10
0.0
 20
0.0
 30
0.0
 11
1188.0
 21
0.0
 31
0.0
  0
LINE
  5
1C09
  8
0
  6
CONTINUOUS
 10
0.0
 20
840.0
 30
0.0
 11
1188.0
 21
840.0
 31
0.0
  0
LINE
  5
1C0A
  8
0
  6
CONTINUOUS
 10
0.0
 20
0.0
 30
0.0
 11
0.0
 21
840.0
 31
0.0
  0
LINE
  5
1C0B
  8
0
  6
CONTINUOUS
 10
1188.0
 20
0.0
 30
0.0
 11
1188.0
 21
840.0
 31
0.0
  0
POLYLINE
  5
1C0D
  8
0
  6
CONTINUOUS
 62
    80
 66
     1
 10
0.0
 20
0.0
 30
0.0
 70
     1
  0
VERTEX
  5
2DE2
  8
0
  6
CONTINUOUS
 62
    80
 10
1128.0
 20
810.0
 30
0.0
  0
VERTEX
  5
2DE3
  8
0
  6
CONTINUOUS
 62
    80
 10
50.0
 20
810.0
 30
0.0
  0
VERTEX
  5
2DE4
  8
0
  6
CONTINUOUS
 62
    80
 10
50.0
 20
30.0
 30
0.0
  0
VERTEX
  5
2DE5
  8
0
  6
CONTINUOUS
 62
    80
 10
1128.0
 20
30.000002
 30
0.0
  0
SEQEND
  5
2E50
  8
0
  6
CONTINUOUS
 62
    80
  0
LINE
  5
1C0E
  8
0
  6
CONTINUOUS
 10
640.0
 20
54.999997
 30
0.0
 11
1128.0
 21
54.999997
 31
0.0
  0
LINE
  5
1C0F
  8
0
  6
CONTINUOUS
 10
1008.0
 20
42.499998
 30
0.0
 11
838.0
 21
42.499998
 31
0.0
  0
TEXT
  5
1C10
  8
0
  6
CONTINUOUS
 10
763.61184
 20
33.824471
 30
0.0
 40
4.0
  1
www.suzuki-sh.co.jp
 72
     1
 11
793.516602
 21
35.824471
 31
0.0
 73
     2
1001
PE_URL
1000
http://www.suzuki-sh.co.jp/
1002
{
1000
鈴木シャッター ホームページ
1002
}
  0
TEXT
  5
1C11
  8
0
  6
CONTINUOUS
 10
708.257767
 20
41.405891
 30
0.0
 40
10.0
  1
株式会社　鈴木シャッター
 41
0.75
 72
     1
 11
761.007767
 21
46.405891
 31
0.0
 73
     2
  0
TEXT
  5
1C12
  8
0
  6
CONTINUOUS
 10
842.382899
 20
45.5371
 30
0.0
 40
7.0
  1
製品
 41
0.8
  0
TEXT
  5
1C13
  8
0
  6
CONTINUOUS
 10
842.075689
 20
32.877796
 30
0.0
 40
7.0
  1
コメント
 41
0.8
  0
LINE
  5
1C14
  8
0
  6
CONTINUOUS
 10
838.0
 20
54.999997
 30
0.0
 11
838.0
 21
29.999999
 31
0.0
  0
LINE
  5
1C15
  8
0
  6
CONTINUOUS
 10
1008.0
 20
54.999997
 30
0.0
 11
1008.0
 21
29.999999
 31
0.0
  0
TEXT
  5
1C16
  8
0
  6
CONTINUOUS
 62
    80
 10
1044.0
 20
801.999999
 30
0.0
 40
6.0
  1
ファイル名
 41
0.8
 72
     1
 11
1058.0
 21
804.999999
 31
0.0
 73
     2
  0
LINE
  5
1C17
  8
0
  6
CONTINUOUS
 10
1038.0
 20
799.999999
 30
0.0
 11
1128.0
 21
799.999999
 31
0.0
  0
LINE
  5
1C18
  8
0
  6
CONTINUOUS
 10
1038.0
 20
809.999999
 30
0.0
 11
1038.0
 21
799.999999
 31
0.0
  0
LINE
  5
1C19
  8
0
  6
CONTINUOUS
 10
1078.0
 20
809.999999
 30
0.0
 11
1078.0
 21
799.999999
 31
0.0
  0
LINE
  5
1C1A
  8
0
  6
CONTINUOUS
 10
640.0
 20
54.999997
 30
0.0
 11
640.0
 21
29.999998
 31
0.0
  0
TEXT
  5
1C1B
  8
0
 10
656.387241
 20
35.22811
 30
0.0
 40
7.0
  1
2
 41
0.8
 11
656.387241
 21
38.72811
 31
0.0
 73
     2
1001
FRAME_TEXT
1000
TEXT
1000
図面尺度
  0
TEXT
  5
1C1C
  8
0
  6
CONTINUOUS
 10
652.19597
 20
38.886666
 30
0.0
 40
7.0
  1
／
 41
0.746544
 72
     5
 11
657.59597
 21
38.886666
 31
0.0
  0
LINE
  5
1C1D
  8
0
  6
CONTINUOUS
 10
650.0
 20
54.999997
 30
0.0
 11
650.0
 21
29.999998
 31
0.0
  0
TEXT
  5
1C1E
  8
0
  6
CONTINUOUS
 10
649.933019
 20
42.820336
 30
0.0
 40
7.0
  1
１
 41
0.8
 72
     1
 11
652.733019
 21
42.820336
 31
0.0
  0
LINE
  5
1C23
  8
0
  6
CONTINUOUS
 10
668.0
 20
54.999997
 30
0.0
 11
668.0
 21
29.999999
 31
0.0
  0
LINE
  5
1C2C
  8
0
  6
CONTINUOUS
 10
1188.0
 20
0.0
 30
0.0
 11
1188.0
 21
840.0
 31
0.0
  0
TEXT
  5
1C2D
  8
0
 10
641.749161
 20
45.051439
 30
0.0
 40
7.0
  1
尺
  0
TEXT
  5
1C2E
  8
0
 10
641.749161
 20
33.384772
 30
0.0
 40
7.0
  1
度
  0
ENDSEC
  0
EOF
